<?xml version="1.0" standalone="no"?>
<!DOCTYPE svg PUBLIC "-//W3C//DTD SVG 1.1//EN" "http://www.w3.org/Graphics/SVG/1.1/DTD/svg11.dtd" >
<svg xmlns="http://www.w3.org/2000/svg" xmlns:xlink="http://www.w3.org/1999/xlink" version="1.1">
<metadata>
Created by FontForge 20170731 at Mon Nov  2 12:37:59 2020
 By Aleksey,,,
Copyright 2011 The Lora Project Authors (https://github.com/cyrealtype/Lora-Cyrillic), with Reserved Font Name "Lora".
</metadata>
<defs>
<font id="Lora-Bold" horiz-adv-x="../0.html" >
  <font-face 
    font-family="Lora"
    font-weight="700"
    font-stretch="normal"
    units-per-em="1000"
    panose-1="0 0 0 0 0 0 0 0 0 0"
    ascent="800"
    descent="-200"
    x-height="500"
    cap-height="700"
    bbox="-88 -275 1279 1006"
    underline-thickness="50"
    underline-position="-175"
    unicode-range="U+000D-2215"
  />
<missing-glyph horiz-adv-x="529" 
d="M30 0v500h453v-500h-453zM162 72h190v356h-190v-356z" />
    <glyph glyph-name="fi" unicode="fi" horiz-adv-x="667" 
d="M43 0v65q28 0 40.5 11t16 31.5t3.5 46.5v264l-73 -1v83h73q6 138 64 196.5t175 58.5q87 0 139 -21t75 -48.5t22 -46.5q0 -22 -15 -44.5t-46 -23.5q-28 -1 -46 16.5t-18 43.5q0 5 1 10.5t2 10.5q-4 5 -25.5 18.5t-68.5 13.5q-56 0 -81.5 -23.5t-32 -60t-6.5 -76.5v-24h83
h90t75 2t38 8h54v-349q0 -14 -1 -39.5t-3 -48.5q17 2 36 2.5t29 0.5v-76h-262v65q28 0 40.5 11t15.5 31.5t3 46.5v185q0 18 1 41.5t3 45.5l-201 -5l1 -258q0 -14 -1 -40.5t-3 -49.5q17 2 38.5 2.5t31.5 0.5v-76h-267z" />
    <glyph glyph-name="fl" unicode="fl" horiz-adv-x="675" 
d="M103 515q0 87 25.5 139.5t70.5 76.5t105 24q38 0 67 -5.5t54.5 -11t50.5 -5.5q20 0 33.5 6t25.5 16h54v-594q0 -14 -1 -39.5t-3 -48.5q16 2 35.5 2.5t29.5 0.5v-76h-262v65q28 0 40 11t15.5 31.5t3.5 46.5v492q-20 11 -36.5 18.5t-35 11t-45.5 3.5q-33 0 -52.5 -15.5
t-27.5 -40t-8 -51.5v-72h112v-77l-111 -3l1 -257q0 -14 -1 -40.5t-3 -49.5q17 2 38.5 2.5t31.5 0.5v-76h-267v65q28 0 40.5 11t16 31.5t3.5 46.5v264l-73 -1v83h73v15z" />
    <glyph glyph-name=".notdef" horiz-adv-x="529" 
d="M30 0v500h453v-500h-453zM162 72h190v356h-190v-356z" />
    <glyph glyph-name="uni0000" 
 />
    <glyph glyph-name="uni0000" 
 />
    <glyph glyph-name="nonmarkingreturn" horiz-adv-x="333" 
 />
    <glyph glyph-name="CR" unicode="&#xd;" horiz-adv-x="263" 
 />
    <glyph glyph-name="space" unicode=" " horiz-adv-x="263" 
 />
    <glyph glyph-name="exclam" unicode="!" horiz-adv-x="258" 
d="M95 213l-38 412q-3 32 15.5 61.5t56.5 29.5q41 0 57.5 -29.5t13.5 -61.5l-37 -412h-68zM128 -16q-29 0 -50.5 23t-21.5 55t22 55t51 23q31 0 51.5 -23t20.5 -55t-22 -55t-51 -23z" />
    <glyph glyph-name="quotedbl" unicode="&#x22;" horiz-adv-x="326" 
d="M194 491l-8 225h97l-9 -225h-80zM51 491l-8 225h97l-9 -225h-80z" />
    <glyph glyph-name="numbersign" unicode="#" horiz-adv-x="871" 
d="M162 -16l41 170h-166l21 89h163l50 197h-168l21 89h166l44 187h101l-43 -187h173l44 187h100l-42 -187h167v-1l-20 -88h-166l-47 -197h167l-21 -89h-164l-40 -170h-106l41 170h-171l-39 -170h-106zM325 243h171l50 197h-173z" />
    <glyph glyph-name="dollar" unicode="$" horiz-adv-x="588" 
d="M263 -154l-1 141q-31 5 -64 16.5t-62 29.5l2 -42h-77v234h65q14 -84 60 -126.5t116 -42.5q53 0 82 28.5t29 71.5q0 34 -20.5 55t-54 36.5t-71.5 30.5q-58 24 -107.5 56.5t-79.5 79t-30 111.5q0 30 9 62t31 60t61 47t99 22v121h94l-1 -131q22 -6 42.5 -15t38.5 -23l-3 41
h78v-233h-66q-9 56 -28.5 93.5t-51.5 56.5t-79 18q-28 0 -49 -11t-33 -30.5t-12 -44.5q0 -31 14 -52.5t47.5 -41.5t90.5 -46q37 -16 75 -36.5t69.5 -47.5t50.5 -63t19 -85q0 -52 -22 -94t-64.5 -69t-104.5 -36l-1 -141h-91z" />
    <glyph glyph-name="percent" unicode="%" horiz-adv-x="904" 
d="M193 -17l-65 61l570 672l73 -66zM230 325q-61 0 -103.5 27.5t-64 71.5t-21.5 93q0 47 22 92t64 75.5t101 31.5q62 1 104 -27.5t63.5 -72.5t21.5 -90q0 -53 -25 -99t-67 -74t-95 -28zM231 405q25 0 38.5 16.5t19.5 41.5t6 48q0 20 -3 42t-10.5 41.5t-20.5 32t-32 12.5
t-31.5 -11t-20 -28t-10.5 -35.5t-3 -32.5q0 -19 3 -41t10 -41.5t20 -32t34 -12.5zM677 -16q-61 0 -103.5 27.5t-64 71.5t-21.5 93q0 47 22 92t64 75.5t101 31.5q61 1 103 -27.5t64 -72.5t22 -90q0 -52 -25 -98t-67 -74.5t-95 -28.5zM678 64q18 0 30.5 10t20 26t10.5 34.5
t3 35.5q0 20 -3 42t-10.5 41.5t-20.5 32t-32 12.5q-25 0 -39.5 -19t-20.5 -44t-6 -44t3 -41t10.5 -41.5t20.5 -32t34 -12.5z" />
    <glyph glyph-name="ampersand" unicode="&#x26;" horiz-adv-x="670" 
d="M261 -16q-43 0 -85.5 11t-77 33.5t-55 57.5t-20.5 84q0 67 44.5 118.5t111.5 76.5q-36 39 -53.5 71t-23 60t-5.5 55q1 76 53 120.5t138 44.5q53 0 92 -22t60.5 -57.5t21.5 -77.5q0 -41 -20.5 -77.5t-53.5 -66t-70 -51.5q4 -4 28 -29t60 -60t74 -70q3 12 4 24.5t1 25.5
q0 28 -6 44t-17.5 23.5t-29.5 8.5v64h168v-75l-55 3q5 -12 8 -27.5t3 -33.5q0 -29 -5 -56t-14 -52q4 -3 7.5 -6.5t7.5 -6.5q39 -33 71 -54t52 -21v-66h-107q-8 0 -35.5 15t-62.5 42q-39 -34 -92 -53.5t-117 -19.5zM293 55q38 0 69.5 12.5t55.5 34.5q-13 11 -25 22.5
t-25 22.5q-58 53 -93.5 89.5t-66.5 71.5q-19 -15 -29.5 -36t-15 -41.5t-4.5 -35.5q0 -45 16 -76.5t46 -47.5t72 -16zM273 417q38 29 57 72.5t19 74.5q0 36 -17.5 59t-48.5 23q-28 0 -47.5 -23t-19.5 -67q0 -30 16.5 -69.5t40.5 -69.5z" />
    <glyph glyph-name="quotesingle" unicode="'" horiz-adv-x="188" 
d="M52 491l-10 225h104l-9 -225h-85z" />
    <glyph glyph-name="parenleft" unicode="(" horiz-adv-x="296" 
d="M249 760l37 -35q-31 -41 -53 -94t-36.5 -110t-22.5 -111.5t-11.5 -99t-3.5 -71.5t3.5 -70.5t11.5 -96t22.5 -108t36.5 -107.5t53 -93l-36 -35q-38 34 -77.5 86.5t-73 119.5t-54.5 144t-21 160t21 162t54.5 148t73 123t76.5 88z" />
    <glyph glyph-name="parenright" unicode=")" horiz-adv-x="296" 
d="M47 -271l-37 35q31 41 53 94t36.5 110t22.5 111.5t11.5 99t3.5 71.5t-3.5 70.5t-11.5 96t-22.5 108t-36.5 107.5t-53 93l36 35q38 -34 77.5 -86.5t73 -119.5t54.5 -144t21 -160t-21 -162t-54.5 -148t-73 -123t-76.5 -88z" />
    <glyph glyph-name="asterisk" unicode="*" horiz-adv-x="533" 
d="M130 296q-17 13 -19.5 28.5t3.5 31t16 29.5q13 17 36.5 38.5t61.5 47.5q-47 0 -78.5 3.5t-51.5 9.5q-16 6 -30.5 14.5t-21 23t-0.5 34.5q11 31 35 33t49 -6q20 -7 47.5 -22.5t65.5 -42.5q-15 44 -21.5 75t-6.5 52q0 17 4 33.5t15.5 27t32.5 10.5q22 0 33 -10.5t15 -27
t4 -33.5q0 -21 -6.5 -52t-21.5 -75q38 27 65 42.5t46 22.5q17 6 34 7t31 -6.5t20 -27.5q10 -31 -8.5 -47.5t-42.5 -24.5q-21 -6 -52 -9.5t-78 -3.5q38 -27 61.5 -48t35.5 -38q10 -14 16.5 -30t4 -31t-20.5 -28q-17 -12 -32.5 -10t-28.5 13t-23 24q-13 18 -25.5 47t-26.5 73
q-14 -44 -27 -73t-26 -46q-10 -14 -23 -25t-28 -13t-33 10z" />
    <glyph glyph-name="plus" unicode="+" horiz-adv-x="530" 
d="M42 399h446v-78h-446v78zM304 583v-446h-78v446h78z" />
    <glyph glyph-name="comma" unicode="," horiz-adv-x="250" 
d="M116 -187l-39 28q11 14 24.5 40t23.5 57.5t9 60.5q-7 -2 -11.5 -2.5t-9.5 -0.5q-27 0 -48 16t-21 50q0 30 19.5 52.5t52.5 22.5q46 1 69 -29.5t23 -75.5q0 -32 -10 -68t-30.5 -74t-51.5 -77z" />
    <glyph glyph-name="hyphen" unicode="-" horiz-adv-x="471" 
d="M51 260v108h368v-105z" />
    <glyph glyph-name="period" unicode="." horiz-adv-x="233" 
d="M118 -16q-33 0 -53.5 23t-20.5 55t22 55t51 23q31 0 51.5 -23t20.5 -55t-19.5 -55t-51.5 -23z" />
    <glyph glyph-name="slash" unicode="/" horiz-adv-x="699" 
d="M103 -271l-78 51l558 975l91 -58z" />
    <glyph glyph-name="zero" unicode="0" horiz-adv-x="636" 
d="M318 -16q-76 0 -129 32.5t-85 86t-46.5 117.5t-14.5 127t17.5 128t52.5 119.5t87 88t122 33.5q73 0 124.5 -33t83.5 -86.5t47 -117.5t15 -127q0 -62 -16.5 -127t-50.5 -119.5t-85.5 -88t-121.5 -33.5zM324 55q35 0 58 22t35.5 60.5t17.5 88.5t5 105q0 61 -4.5 117.5
t-17 101t-36 70.5t-62.5 26q-36 0 -60 -22t-38.5 -61t-20.5 -89t-6 -106q0 -42 2.5 -86t10 -84.5t21.5 -72.5t37.5 -51t57.5 -19z" />
    <glyph glyph-name="one" unicode="1" horiz-adv-x="406" 
d="M80 0v66q23 1 38.5 6t24 23t8.5 58v401l-109 -65l-36 60l229 167h60v-552q0 -27 -0.5 -52t-2.5 -38q16 2 40.5 2.5t34.5 0.5v-77h-287z" />
    <glyph glyph-name="two" unicode="2" horiz-adv-x="533" 
d="M39 0q0 52 13.5 93t36 74t50 61t56.5 55q73 68 103.5 123t30.5 109q0 32 -8 62t-29 49.5t-59 18.5q-27 0 -48.5 -12.5t-32.5 -29.5q11 -11 15.5 -26t4.5 -26t-7 -26.5t-21.5 -26.5t-39.5 -11q-31 2 -47.5 23t-16.5 50q0 23 14 49.5t42 51t68.5 40t93.5 15.5
q40 0 79.5 -10t72.5 -32t52.5 -58t19.5 -89q0 -25 -9 -52.5t-33 -60t-67 -74.5t-111 -98q-55 -45 -81 -82t-31 -57l196 -5q23 -1 39.5 3.5t26 19t9.5 42.5h64l-8 -163h-438z" />
    <glyph glyph-name="three" unicode="3" horiz-adv-x="560" 
d="M252 -16q-75 0 -123 22.5t-71 56.5t-23 68q0 30 18.5 52.5t49.5 23.5q25 1 39 -10t20 -26t6 -28q0 -10 -4 -22.5t-12 -23.5q11 -19 36.5 -29.5t53.5 -10.5q63 0 95 38t32 94q0 34 -13 68t-45 56.5t-90 21.5q-7 0 -25 -1t-27 -2v72q8 -1 15 -1h14q44 0 75 16t47.5 44
t17.5 65q1 35 -8.5 61.5t-30 41.5t-54.5 15q-27 0 -49 -13t-30 -29q9 -11 12.5 -25.5t3.5 -23.5q0 -12 -6.5 -27.5t-21.5 -26.5t-40 -10q-31 1 -47 22t-16 50q0 30 23 66t70 61.5t117 25.5q62 0 112.5 -17t80 -56t29.5 -104q0 -26 -14.5 -58.5t-47.5 -59.5t-88 -40
q96 -17 141.5 -69t45.5 -116q0 -68 -34.5 -115.5t-95 -72t-138.5 -24.5z" />
    <glyph glyph-name="four" unicode="4" horiz-adv-x="547" 
d="M416 164q0 -27 -1 -52t-3 -38q17 2 41 2.5t34 0.5v-77h-285v66h6q23 0 39.5 5t26 23.5t9.5 58.5v28h-271v94l343 441h61v-445h98v-90h-98v-17zM282 506l-177 -232l178 -1l1 233h-2z" />
    <glyph glyph-name="five" unicode="5" horiz-adv-x="540" 
d="M250 -16q-65 0 -111 21t-70.5 52.5t-24.5 63.5q0 29 18 52t49 24q25 1 39 -9.5t20 -25.5t6 -29q0 -8 -2.5 -19.5t-8.5 -21.5q5 -11 18 -19.5t29.5 -13t30.5 -4.5q40 0 64.5 21t35.5 54t11 67q0 23 -3 52t-14.5 57t-36 46t-66.5 18q-14 0 -33 -3.5t-41.5 -11.5t-45.5 -22
l-43 33l-4 334h259q35 0 55.5 11.5t20.5 53.5h63l-7 -162l-314 -6v-178q23 10 57 17t64 7q62 0 108 -18t76 -49.5t44.5 -72t14.5 -85.5q0 -77 -37.5 -129.5t-96.5 -78.5t-124 -26z" />
    <glyph glyph-name="six" unicode="6" horiz-adv-x="575" 
d="M287 -16q-89 0 -142 41.5t-76 117.5t-23 179q0 35 7 85t24 103.5t48 100.5t79 76t116 29q63 0 103.5 -21t59.5 -51.5t19 -61.5q0 -27 -16 -49t-47 -22q-37 0 -51.5 21.5t-14.5 41.5q0 8 3 21t11 23q-8 12 -25.5 21t-42.5 7q-29 -2 -50.5 -18.5t-36 -43t-23 -59.5t-13 -68
t-5.5 -67q11 13 31.5 25.5t46.5 21t50 9.5q56 2 96 -14.5t66 -48t38.5 -74.5t12.5 -94q0 -63 -31.5 -115.5t-87 -84t-126.5 -31.5zM292 54q35 0 54.5 19.5t27 51t7.5 65.5q0 23 -2.5 52.5t-11.5 58t-27 47t-49 18.5q-21 0 -40.5 -9t-35 -24t-24.5 -33q0 -35 5 -77
t16.5 -80.5t31 -63.5t48.5 -25z" />
    <glyph glyph-name="seven" unicode="7" horiz-adv-x="469" 
d="M200 -16q-31 0 -43.5 18t-12.5 40q0 20 9.5 51t24.5 68.5t31 74.5q17 40 39 92t51 119t65 152l-210 2q-34 1 -55 -14.5t-21 -56.5h-63l7 170h426v-91q-34 -69 -58.5 -134t-44 -130t-37 -135l-37.5 -150q-7 -28 -24.5 -52.5t-46.5 -23.5z" />
    <glyph glyph-name="eight" unicode="8" horiz-adv-x="572" 
d="M283 -16q-36 0 -75.5 9t-74 29t-56 53.5t-21.5 82.5q0 38 19.5 73t49.5 64.5t63 48.5q-66 41 -93.5 91t-27.5 90q0 49 20.5 85t54.5 59.5t73.5 35t78.5 11.5q52 0 99 -19.5t77 -57.5t30 -93q0 -34 -18 -65t-45.5 -56t-55.5 -43q51 -31 84 -65t49 -70.5t16 -74.5
q0 -65 -34.5 -106.5t-91 -61.5t-121.5 -20zM284 54q48 -1 75.5 27.5t27.5 69.5q0 38 -28 78.5t-102 77.5q-40 -31 -58.5 -70.5t-20.5 -68.5q-2 -47 28 -80t78 -34zM316 423q32 24 53.5 57.5t22.5 61.5q2 50 -25 77t-65 27q-29 0 -50.5 -12.5t-33 -33.5t-11.5 -47
q0 -39 32.5 -75.5t76.5 -54.5z" />
    <glyph glyph-name="nine" unicode="9" horiz-adv-x="576" 
d="M255 -16q-66 0 -106 19t-58.5 49t-18.5 63q0 27 17.5 50.5t48.5 23.5q38 0 51 -21.5t13 -41.5q0 -8 -3.5 -21.5t-10.5 -21.5q8 -12 25.5 -20.5t42.5 -7.5q29 2 51 16.5t37.5 39.5t25 57t13 68.5t1.5 74.5q-16 -19 -52 -37t-74 -20q-55 -1 -95.5 15.5t-67 48.5t-39.5 75
t-13 94q0 67 30.5 118.5t85 81t125.5 29.5q67 0 113.5 -25t75.5 -70.5t42.5 -107.5t13.5 -135q0 -45 -6.5 -98t-23 -105t-47 -95.5t-79 -69.5t-118.5 -26zM286 334q21 0 40 9t34 24t24 33q0 48 -5 92t-16.5 79t-31 55t-48.5 20q-30 0 -50 -19.5t-29.5 -50.5t-9.5 -66
q0 -22 3 -52t12 -58.5t27.5 -47t49.5 -18.5z" />
    <glyph glyph-name="colon" unicode=":" horiz-adv-x="250" 
d="M125 -16q-33 0 -53.5 23t-20.5 55t22 55t51 23q31 0 51.5 -23t20.5 -55t-19.5 -55t-51.5 -23zM125 387q-33 0 -53.5 23t-20.5 55t22 55t51 23q31 0 51.5 -23t20.5 -55t-19.5 -55t-51.5 -23z" />
    <glyph glyph-name="semicolon" unicode=";" horiz-adv-x="267" 
d="M122 -187l-39 28q11 14 24.5 40t23.5 57.5t9 60.5q-7 -2 -11.5 -2.5t-9.5 -0.5q-27 0 -48 16t-21 50q0 30 19.5 52.5t52.5 22.5q46 1 69 -29.5t23 -75.5q0 -32 -10 -68t-30.5 -74t-51.5 -77zM139 387q-33 0 -53.5 23t-20.5 55t22 55t51 23q31 0 51.5 -23t20.5 -55
t-19.5 -55t-51.5 -23z" />
    <glyph glyph-name="less" unicode="&#x3c;" horiz-adv-x="530" 
d="M490 72l-450 196v89l450 200v-100l-321 -142l321 -142v-101z" />
    <glyph glyph-name="equal" unicode="=" horiz-adv-x="530" 
d="M42 493h446v-78h-446v78zM42 315h446v-78h-446v78z" />
    <glyph glyph-name="greater" unicode="&#x3e;" horiz-adv-x="530" 
d="M40 557l450 -196v-89l-450 -200v100l321 142l-321 142v101z" />
    <glyph glyph-name="question" unicode="?" horiz-adv-x="503" 
d="M237 181q-32 0 -59.5 16t-27.5 53q0 17 6.5 32t24 36.5t50.5 54.5q35 35 58 71t23 93q0 31 -7.5 55.5t-26 39t-52.5 14.5q-16 0 -31 -5t-26.5 -12t-18.5 -15q11 -10 14.5 -24.5t3.5 -25.5q0 -12 -7 -28.5t-22 -28t-39 -10.5q-32 2 -47.5 21.5t-15.5 49.5q0 36 27 70
t74 56t107 22q80 0 126.5 -23t66.5 -59.5t20 -76.5q0 -42 -21 -76.5t-52 -63.5t-62 -52.5t-52 -44.5t-21 -40q0 -13 9.5 -21.5t30.5 -8.5q6 0 13.5 1t16.5 3l15 -51q-25 -13 -52 -17.5t-46 -4.5zM247 -16q-29 0 -50.5 23t-21.5 55t22 55t51 23q31 0 51.5 -23t20.5 -55
t-22 -55t-51 -23z" />
    <glyph glyph-name="at" unicode="@" horiz-adv-x="793" 
d="M415 -99q-91 -2 -160 26t-115.5 78t-69.5 114.5t-23 136.5q0 64 24 130.5t71.5 123.5t116.5 92t159 35q83 0 145 -28.5t103 -76.5t61.5 -107.5t18.5 -121.5q-1 -61 -21 -106t-50.5 -73.5t-65 -41.5t-66.5 -11q-18 1 -35.5 7t-31 20t-20.5 39t-4 63q-27 -67 -62 -95.5
t-67 -28.5q-41 0 -73.5 34.5t-32.5 110.5q0 49 15 96t44 85t72 60.5t99 22.5q22 0 54 -5t65 -16q-4 -34 -9.5 -75t-11 -82.5t-8.5 -75.5t-3 -53q0 -14 3.5 -28t11.5 -22.5t22 -8.5q30 0 49.5 20t31 50.5t16.5 63.5t5 59q0 91 -34.5 154t-93 95.5t-132.5 32.5
q-64 0 -117 -27.5t-91 -74t-58.5 -106t-20.5 -124.5q0 -76 23.5 -134t65.5 -97.5t96.5 -60t115.5 -20.5q41 0 84.5 11.5t84.5 35t73 58.5l22 -27q-55 -62 -126.5 -93.5t-149.5 -33.5zM350 145q19 0 38 28t35 72.5t26.5 94t12.5 92.5q-7 2 -17.5 3t-19.5 0q-26 -2 -46 -23
t-34 -53t-21.5 -69t-7.5 -72t9.5 -54t24.5 -19z" />
    <glyph glyph-name="A" unicode="A" horiz-adv-x="668" 
d="M4 0v69q28 0 45 16t28.5 42t22.5 56l195 535h70l213 -545q6 -15 16 -45.5t12 -53.5q17 2 32.5 2.5t25.5 0.5v-77h-269v66q28 0 38.5 11.5t9.5 31.5t-11 45l-20 55l-217 -4l-16 -47q-5 -13 -14.5 -38.5t-17.5 -42.5q16 2 38.5 2.5t32.5 0.5v-80h-214zM220 280h167l-46 125
q-13 36 -23 72.5t-15 64.5h-1l-12 -51t-25 -81z" />
    <glyph glyph-name="B" unicode="B" horiz-adv-x="661" 
d="M50 0v66q23 1 38.5 6t24 23t8.5 58v383q0 27 1.5 52t2.5 38q-16 -1 -40 -1.5t-35 -1.5v77q69 1 138.5 1t138.5 1q120 1 190.5 -44.5t65.5 -137.5q-2 -29 -18 -56.5t-47.5 -49.5t-78.5 -35v-1q100 -16 147 -66.5t47 -112.5q0 -65 -31.5 -109.5t-86.5 -67t-125 -22.5h-340z
M262 71h34t32 0.5t31 0.5q61 3 89 39t28 91q0 46 -19 72.5t-48.5 37.5t-61.5 11h-43t-38 -1v-163q0 -27 -1 -51t-3 -37zM266 393l52 1q42 1 66.5 19t35 48.5t10.5 66.5q0 40 -16 62.5t-40 32.5t-50 9q-16 0 -29 -5t-21 -22.5t-8 -56.5v-155z" />
    <glyph glyph-name="C" unicode="C" horiz-adv-x="688" 
d="M566 476q-13 83 -55.5 125t-112.5 43q-52 0 -91 -24t-64.5 -64t-38 -91t-12.5 -105q0 -86 24.5 -152.5t71.5 -104.5t114 -38q63 0 125 32.5t104 90.5l48 -44q-49 -67 -103 -101.5t-105.5 -46.5t-92.5 -12q-77 0 -140 27.5t-108.5 76t-70 113t-24.5 139.5q0 68 22 135
t65.5 121.5t109.5 87t153 32.5q39 0 85.5 -12.5t87.5 -36.5l-4 42h77v-233h-65z" />
    <glyph glyph-name="D" unicode="D" horiz-adv-x="759" 
d="M50 66q23 1 38.5 6t24 23t8.5 58v383q0 27 1.5 52t2.5 38q-16 -1 -40 -1.5t-35 -1.5v77l291 1q99 0 171.5 -29.5t119 -79.5t69.5 -111.5t23 -123.5q0 -61 -21.5 -124t-67.5 -115.5t-120 -85t-179 -32.5h-286v66zM266 164q0 -27 -1 -52t-3 -38q10 1 27.5 0.5t36.5 -1
t31 -0.5q55 0 94.5 22t65 59.5t37.5 84.5t12 97q0 102 -28 167t-78.5 97t-120.5 34q-24 1 -40.5 -4.5t-24.5 -23.5t-8 -57v-385z" />
    <glyph glyph-name="E" unicode="E" horiz-adv-x="624" 
d="M390 241q0 42 -13 60.5t-35.5 23.5t-49.5 4l-26 -1v-164q0 -27 -1 -51t-3 -37h134q30 0 58 13.5t46 45t18 85.5h65l-5 -220h-528v66q23 1 38.5 6t24 23t8.5 58v383q0 27 1.5 52t2.5 38q-16 -1 -40 -1.5t-35 -1.5v77h500l6 -194h-66q0 55 -19 83t-47 37.5t-55 8.5l-36 -1
q-21 0 -36 -5.5t-23 -24t-8 -57.5v-150h117l-4 87h77v-243h-66z" />
    <glyph glyph-name="F" unicode="F" horiz-adv-x="571" 
d="M50 0v66q23 1 38.5 6t24 23t8.5 58v383q0 27 1.5 52t2.5 38q-16 -1 -40 -1.5t-35 -1.5v77h500l6 -194h-66q0 55 -19 83t-47 37.5t-55 8.5l-36 -1q-21 0 -36 -5.5t-23 -24t-8 -57.5v-174h103l-4 86h77v-243h-66q0 42 -13 61t-35.5 23.5t-49.5 3.5h-12v-140q0 -27 -1 -52
t-3 -38q11 1 29 1.5t35.5 1t24.5 0.5v-77h-301z" />
    <glyph glyph-name="G" unicode="G" horiz-adv-x="754" 
d="M376 -16q-108 0 -184 47.5t-116 128.5t-40 180q0 68 21.5 135t64.5 121.5t108.5 87t152.5 32.5q27 0 61 -5.5t68.5 -16.5t61.5 -27l-4 42h77v-233h-65q-9 56 -35 93t-65 56t-86 19q-52 0 -90.5 -24t-63.5 -64t-37.5 -91t-12.5 -105q0 -86 24 -153t70.5 -105.5
t114.5 -38.5q19 0 45 3t52 9t44 15v93q0 27 1.5 52t2.5 38q-16 -1 -40 -1.5t-35 -1.5v77h266v-66q-17 -1 -29.5 -4t-21 -11.5t-12.5 -25.5t-4 -46v-160h-24q-29 0 -58 -8t-62 -18q-31 -9 -68 -16.5t-82 -7.5z" />
    <glyph glyph-name="H" unicode="H" horiz-adv-x="807" 
d="M50 0v66q23 1 38.5 6t24 23t8.5 58v383q0 27 1.5 52t2.5 38q-16 -1 -40 -1.5t-35 -1.5v77h287v-66q-22 -1 -38 -6t-24.5 -22.5t-8.5 -58.5v-156h275v145q0 27 1 52t3 38q-16 -1 -40 -1.5t-35 -1.5v77h287v-66q-22 -1 -38 -6t-24.5 -22.5t-8.5 -58.5v-383q0 -27 -1 -52
t-3 -38q16 2 40.5 2.5t34.5 0.5v-77h-287v66q23 1 38.5 6t24 23t8.5 58v162l-275 -3v-148q0 -27 -1 -52t-3 -38q16 2 40.5 2.5t34.5 0.5v-77h-287z" />
    <glyph glyph-name="I" unicode="I" horiz-adv-x="387" 
d="M337 634q-22 -1 -38 -6t-24.5 -22.5t-8.5 -58.5v-383q0 -27 -1 -52t-3 -38q16 2 40.5 2.5t34.5 0.5v-77h-287v66q23 1 38.5 6t24 23t8.5 58v383q0 27 1.5 52t2.5 38q-16 -1 -40 -1.5t-35 -1.5v77h287v-66z" />
    <glyph glyph-name="J" unicode="J" horiz-adv-x="451" 
d="M144 -16q-39 0 -71.5 14t-52 38t-19.5 55q0 32 17.5 57t51.5 26q38 2 54.5 -18.5t17.5 -46.5q1 -8 -1.5 -18t-7.5 -19q5 -10 15.5 -13t15.5 -3q21 0 32.5 18.5t11.5 60.5v401q0 27 1 52t3 38q-16 -1 -40 -1.5t-35 -1.5v77h287v-66q-22 -1 -38 -6t-24.5 -22.5t-8.5 -58.5
v-293q0 -144 -54 -207t-155 -63z" />
    <glyph glyph-name="K" unicode="K" horiz-adv-x="712" 
d="M50 0v66q23 1 38.5 6t24 23t8.5 58v383q0 27 1.5 52t2.5 38q-16 -1 -40 -1.5t-35 -1.5v77h287v-66q-22 -1 -38 -6t-24.5 -22.5t-8.5 -58.5v-152h72l77 131q17 30 36 60t32 41q-16 -1 -34 -2t-29 -2v77h245v-66q-22 -1 -47.5 -8t-52.5 -28t-55 -66l-96 -154
q20 -13 35.5 -27.5t27.5 -31.5l103 -145q20 -28 41.5 -52.5t44.5 -39.5t45 -16v-66h-154q-8 1 -26 18t-38 41t-34 43l-99 144q-13 19 -28.5 39t-29.5 30h-36v-151q0 -27 -1 -52t-3 -38q16 2 40.5 2.5t34.5 0.5v-77h-287z" />
    <glyph glyph-name="L" unicode="L" horiz-adv-x="604" 
d="M50 0v66q23 1 38.5 6t24 23t8.5 58v383q0 27 1.5 52t2.5 38q-16 -1 -40 -1.5t-35 -1.5v77h287v-66q-22 -1 -38 -6t-24.5 -22.5t-8.5 -58.5v-383q0 -27 -1 -51t-3 -37h134q59 1 92.5 41.5t33.5 122.5h67l-6 -240h-533z" />
    <glyph glyph-name="M" unicode="M" horiz-adv-x="972" 
d="M408 -10q-34 83 -67.5 165t-67.5 164q-8 19 -20.5 53.5t-26 79.5t-24.5 93q2 -56 3 -105.5t0 -94.5v-45t-0.5 -45.5t-0.5 -45v-45.5q0 -27 -1.5 -52t-3.5 -38q17 2 41.5 2.5t34.5 0.5v-77h-228v66q23 1 38.5 6t24 23t8.5 58l6 383q1 27 2 52t2 38q-16 -1 -40 -1.5
t-35 -1.5v77h221l151 -387q9 -23 20 -53.5t21 -59t15 -45.5h1q13 35 24 68t23 64q39 104 77.5 207t77.5 206h231v-66q-22 -1 -39 -6t-25.5 -22.5t-7.5 -58.5l15 -383q2 -27 0 -52t-4 -38q17 2 41.5 2.5t34.5 0.5v-77h-278v66q23 1 39.5 6t25 23t6.5 58l-8 212q0 12 -2 41.5
t-3.5 65t-2.5 66.5q-3 -7 -6 -13.5t-5 -13.5l-195 -521h-93z" />
    <glyph glyph-name="N" unicode="N" horiz-adv-x="773" 
d="M582 -10l-320 409q-13 17 -27 36t-28 39h-1l2 -310q0 -27 -1 -52t-3 -38q16 2 40.5 2.5t34.5 0.5v-77h-228v66q23 1 38.5 6t24 23t8.5 58l-2 383q0 27 1 52t3 38q-16 -1 -40.5 -1.5t-35.5 -1.5v77h157l306 -386q25 -32 41.5 -55t28.5 -40h1v317q0 27 1 52t2 38
q-16 -1 -40 -1.5t-35 -1.5v77h228v-66q-22 -1 -38 -6t-24.5 -22.5t-8.5 -58.5v-557h-85z" />
    <glyph glyph-name="O" unicode="O" horiz-adv-x="769" 
d="M383 -16q-95 0 -161.5 32t-107.5 85.5t-60 118.5t-19 130q0 63 21.5 127.5t65 118.5t109.5 87t155 33q91 0 157 -33t108 -87.5t62.5 -118.5t20.5 -127q0 -62 -21.5 -126t-65 -118.5t-109.5 -88t-155 -33.5zM394 57q52 0 87 25.5t56 66.5t30 89.5t9 94.5q0 69 -12 126
t-37 98.5t-63.5 64t-90.5 21.5q-51 -1 -86 -27.5t-56 -68t-30 -90.5t-9 -95q0 -47 10.5 -100t33.5 -100t62 -76t96 -29z" />
    <glyph glyph-name="P" unicode="P" horiz-adv-x="639" 
d="M50 66q23 1 38.5 6t24 23t8.5 58v383q0 27 1.5 52t2.5 38q-16 -1 -40 -1.5t-35 -1.5v77q71 1 142 1t142 1q88 1 153.5 -23t101 -74t33.5 -130q-1 -40 -19 -78.5t-53 -70t-88 -51.5t-124 -22q-22 -1 -38.5 -1t-33.5 1v-88q0 -28 -1 -53t-3 -38q11 1 28 1.5t33.5 1
t23.5 0.5v-77h-297v66zM266 328l22 -2t23 -1q55 0 89.5 18.5t50.5 54t16 86.5q0 50 -13.5 80t-34.5 44.5t-44 19t-42 4.5q-21 0 -36 -5t-23 -22t-8 -52v-225z" />
    <glyph glyph-name="Q" unicode="Q" horiz-adv-x="770" 
d="M751 -218q-46 0 -73.5 3.5t-49 15t-49.5 35.5q-42 38 -72.5 71.5t-60.5 55t-72 21.5q-92 0 -156.5 32.5t-104.5 86t-58.5 118.5t-18.5 129q0 63 21.5 127.5t65 118.5t109.5 87t155 33q91 0 157 -33t108 -87.5t62 -118.5t20 -127q0 -50 -14 -101.5t-42 -99t-70.5 -85
t-98.5 -59.5q29 0 51.5 -4t44.5 -15.5t48 -36.5q35 -32 55.5 -52t33.5 -30.5t24.5 -14t27.5 -3.5v-67h-43zM394 57q52 0 87 25.5t56 66.5t30.5 89.5t9.5 94.5q0 69 -12 126t-37 98.5t-63.5 64t-90.5 21.5t-87 -27.5t-55.5 -68t-29.5 -90.5t-9 -95q0 -47 10.5 -100t33.5 -100
t61.5 -76t95.5 -29z" />
    <glyph glyph-name="R" unicode="R" horiz-adv-x="686" 
d="M50 0v66q23 1 38.5 6t24 23t8.5 58v383q0 27 1.5 52t2.5 38q-16 -1 -40 -1.5t-35 -1.5v77q71 1 142 1t142 1q88 1 153 -20t100 -68t33 -127q-1 -42 -20.5 -80t-58 -67t-97.5 -46q19 -8 37.5 -26t31.5 -38l47 -70q22 -34 39 -54t34 -29.5t39 -10.5v-66h-165
q-18 13 -35.5 37.5t-37.5 56.5l-74 120q-13 20 -22.5 34t-19.5 24h-27h-25v-107q0 -28 -1 -53t-3 -38q11 1 28 1.5t33.5 1t23.5 0.5v-77h-297zM314 344q56 0 90 16.5t49.5 50t15.5 84.5q0 48 -15 75.5t-37.5 41t-45.5 17t-38 3.5q-21 0 -36 -5t-23 -22t-8 -52v-205
q11 -1 23 -2.5t25 -1.5z" />
    <glyph glyph-name="S" unicode="S" horiz-adv-x="598" 
d="M454 476q-9 56 -32 93.5t-58.5 56.5t-82.5 18q-43 0 -75.5 -24t-32.5 -62q0 -31 17.5 -54t53.5 -43t91 -43q38 -15 78 -35t74 -47.5t55 -64t21 -85.5q0 -59 -32 -105t-89.5 -71.5t-134.5 -25.5q-40 0 -86.5 12.5t-87.5 36.5l3 -42h-77v234h66q14 -84 64.5 -126.5
t120.5 -42.5q36 0 63 13t42 34.5t15 46.5q0 35 -24.5 58t-61 39t-74.5 31q-48 20 -89.5 42.5t-72.5 51.5t-48 66.5t-17 86.5q0 31 12 64.5t39 62t72 46.5t111 18q40 0 87.5 -12t81.5 -36l-4 41h78v-233h-66z" />
    <glyph glyph-name="T" unicode="T" horiz-adv-x="650" 
d="M567 474q0 54 -15 89.5t-42.5 53t-65.5 16.5h-48v-469q0 -27 -1 -52t-3 -38q17 2 43.5 2.5t36.5 0.5v-77h-292v66q23 1 38.5 6t24 23t8.5 58v479h-46q-57 -1 -90 -39t-33 -119h-66l5 226h606l6 -226h-66z" />
    <glyph glyph-name="U" unicode="U" horiz-adv-x="760" 
d="M313 634q-22 -1 -38 -6t-24.5 -22.5t-8.5 -58.5v-275q0 -63 13.5 -103.5t36 -64t51 -33.5t58.5 -11q55 -2 94 21t60 71t21 122v262q0 27 1 52t3 38q-16 -1 -40.5 -1.5t-35.5 -1.5v77h232v-66q-22 -1 -38 -6t-24.5 -22.5t-8.5 -58.5v-250q0 -86 -21 -146t-59 -97
t-89 -53.5t-111 -16.5q-84 0 -140 24t-88.5 67t-46 99t-13.5 120v242q0 27 1.5 52t2.5 38q-16 -1 -40 -1.5t-35 -1.5v77h287v-66z" />
    <glyph glyph-name="V" unicode="V" horiz-adv-x="708" 
d="M320 -6l-230 537q-10 25 -19 52t-9 43q-16 -1 -29.5 -1.5t-24.5 -1.5v77h295v-66q-37 1 -56.5 -16t-1.5 -61q23 -56 46 -113t46 -113q17 -42 29 -73.5t28 -69.5h1q11 30 23.5 67t24.5 71q13 35 25.5 70t25.5 69.5t25 69.5q5 17 16.5 46t24.5 45q-16 -1 -41 -1.5t-36 -1.5
v77h225v-66q-34 -1 -59 -25t-47 -82q-17 -44 -33.5 -88.5l-33 -89t-33.5 -89t-33.5 -89t-33 -88.5t-33.5 -89h-82z" />
    <glyph glyph-name="W" unicode="W" horiz-adv-x="1016" 
d="M273 -6l-178 539q-10 29 -15.5 53t-5.5 40q-19 -1 -33.5 -1.5t-27.5 -1.5v77h295v-66q-37 1 -54.5 -14t-4.5 -61l30 -114l30 -114q9 -34 16.5 -64t16.5 -78h1q4 14 12 43t17.5 62.5t17 61l10.5 38.5q16 51 31.5 102l31 102t30.5 102h90q14 -46 28.5 -92t28.5 -92
t28.5 -92t28.5 -92q11 -34 19.5 -70.5t16.5 -73.5h1q9 32 18.5 66.5t19.5 71.5l14 52t14 52.5t14 52.5l14 52q6 24 16 49.5t25 41.5q-16 -1 -41 -1.5t-36 -1.5v77h225v-66q-22 -1 -41.5 -11.5t-35.5 -33.5t-29 -62q-40 -133 -81 -266t-82 -267h-89l-118 358
q-13 39 -21.5 76.5t-16.5 71.5q-5 -34 -12 -65.5t-17 -65.5l-114 -375h-87z" />
    <glyph glyph-name="X" unicode="X" horiz-adv-x="699" 
d="M35 0v66q29 7 58 32.5t66 74.5l116 155l-80 102t-81 102q-16 21 -29 46.5t-21 47.5q-16 -1 -27.5 -1.5t-22.5 -1.5v77h304v-66h-10q-31 0 -43 -9t-8.5 -24.5t18.5 -34.5q23 -28 45 -56t44 -57l76 105q21 29 33.5 42.5t25.5 25.5q-16 -1 -40 -1.5t-35 -1.5v77h227v-66
q-23 -3 -45.5 -16t-45.5 -36.5t-50 -60.5l-96 -131q32 -40 63 -80t62.5 -80t62.5 -80q17 -21 31 -40t21 -36q17 2 24 2.5t17 0.5v-77h-299v66q37 0 48 9t5.5 24.5t-20.5 34.5q-25 32 -50.5 64.5t-51.5 64.5q-22 -30 -44 -60.5t-44 -60.5q-21 -28 -32 -42t-23 -26q17 1 39 2
t32 1v-77h-220z" />
    <glyph glyph-name="Y" unicode="Y" horiz-adv-x="667" 
d="M203 0v66q23 1 38.5 6t24 23t8.5 58v87l-184 291q-14 23 -26 51t-12 44q-16 -1 -27 -1.5t-22 -1.5v77h295v-66q-29 2 -48 -6t-23 -25.5t12 -45.5l76 -125q5 -8 15 -25.5t20.5 -37t15.5 -34.5h1q5 12 17 36t30 62l52 102q5 11 14 28.5t19.5 35t19.5 28.5q-16 -1 -41 -2
t-36 -2v77h221v-66q-35 -5 -60 -28.5t-54 -78.5q-32 -62 -65 -125t-65 -125v-28v-28.5v-28.5v-28q0 -27 -1 -52t-3 -38q17 2 43.5 2.5t36.5 0.5v-77h-292z" />
    <glyph glyph-name="Z" unicode="Z" horiz-adv-x="604" 
d="M40 0v75q75 114 149.5 228t149.5 228q19 29 35 52.5t35 45.5l-171 6q-55 2 -91 -32.5t-36 -115.5h-66l6 213h509v-75l-288 -436q-21 -31 -42 -61.5t-44 -57.5l183 -4q56 -1 91 32.5t35 115.5h66l-6 -214h-515z" />
    <glyph glyph-name="bracketleft" unicode="[" horiz-adv-x="386" 
d="M62 -255l1 1010h320v-71l-191 -3l-4 -862l197 -3v-71h-323z" />
    <glyph glyph-name="backslash" unicode="\" horiz-adv-x="699" 
d="M596 -271l78 51l-558 975l-91 -58z" />
    <glyph glyph-name="bracketright" unicode="]" horiz-adv-x="386" 
d="M324 755l-1 -1010h-320v71l191 3l4 862l-197 3v71h323z" />
    <glyph glyph-name="asciicircum" unicode="^" horiz-adv-x="823" 
d="M626 437l-218 206l-217 -202h-131l308 275h89l306 -279h-137z" />
    <glyph glyph-name="underscore" unicode="_" horiz-adv-x="832" 
d="M108 -155v105l615 -4v-101h-615z" />
    <glyph glyph-name="grave" unicode="`" horiz-adv-x="282" 
d="M192 565l-121 106q-13 13 -21 30.5t-5.5 36t18.5 32.5q16 13 33.5 12.5t33.5 -10t26 -26.5l82 -140z" />
    <glyph glyph-name="a" unicode="a" horiz-adv-x="524" 
d="M319 0q-2 14 -2.5 23.5t-1.5 22.5q-34 -34 -72 -48t-77 -14q-64 0 -100 38t-36 95q0 48 24.5 82t65 55.5t90 33t99.5 13.5v52q0 26 -6.5 47t-22 33t-43.5 11q-19 -1 -37 -8t-31 -20q8 -9 10 -19.5t2 -18.5q0 -20 -16 -41.5t-51 -20.5q-30 1 -46 21t-16 47q0 40 28.5 69.5
t76.5 46t106 16.5q88 0 136.5 -45.5t48.5 -145.5v-58t-0.5 -48t-0.5 -58q0 -14 -1 -39.5t-3 -48.5q17 2 36 2.5t29 0.5v-76h-189zM308 230q-28 -3 -53 -10t-43.5 -19t-29 -29t-10.5 -38q1 -28 18 -40t39 -12q23 0 43 10t36 26v19.5v19.5v36.5v36.5z" />
    <glyph glyph-name="b" unicode="b" horiz-adv-x="573" 
d="M63 565q0 18 0.5 41.5t2.5 45.5q-16 -1 -37.5 -1.5t-32.5 -1.5v76q47 0 78.5 5t50 12t25.5 13h54v-293q34 30 69 42t66 12q60 0 105.5 -31t71 -88t25.5 -134q0 -80 -29.5 -143.5t-83.5 -99.5t-130 -36q-27 0 -68.5 11.5t-76.5 48.5l-30 -44h-60v565zM204 150
q0 -34 11 -54t28 -29t34 -10q45 -1 70.5 26t36 71.5t10.5 93.5q0 46 -11 87t-35 66.5t-63 24.5q-25 -1 -46 -12.5t-35 -30.5v-233z" />
    <glyph glyph-name="c" unicode="c" horiz-adv-x="518" 
d="M277 -16q-67 0 -123 30t-89.5 87t-33.5 138q0 57 19 107t53.5 88t82 60t105.5 22q64 0 106.5 -19.5t64 -51t21.5 -66.5q0 -29 -17.5 -51.5t-49.5 -23.5q-38 -1 -53 21.5t-15 43.5q0 9 3 21.5t9 22.5q-7 15 -21 22t-28.5 9.5t-23.5 1.5q-48 -3 -79 -48t-31 -130
q0 -50 12.5 -93.5t41.5 -71.5t78 -30q42 -1 82 20t68 57l46 -45q-36 -50 -75 -76t-77.5 -35.5t-75.5 -9.5z" />
    <glyph glyph-name="d" unicode="d" horiz-adv-x="596" 
d="M234 -16q-60 0 -105.5 31t-71 88t-25.5 134q0 81 31 144t87 99t130 36q27 0 48.5 -5.5t40.5 -12.5v66q0 14 1 40t3 48q-16 -1 -38 -2t-33 -1v76q47 0 78.5 5t50 12t25.5 13h54v-594q0 -14 -1 -39.5t-3 -48.5q17 2 36 2.5t29 0.5v-76h-190q-1 11 -2.5 23t-3.5 23
q-33 -34 -68 -48t-73 -14zM286 75q26 0 48 13.5t35 34.5v30v30v240q-10 8 -30 13.5t-41 5.5q-46 -1 -72 -29t-36.5 -71t-10.5 -90q0 -42 10.5 -83t34 -67.5t62.5 -26.5z" />
    <glyph glyph-name="e" unicode="e" horiz-adv-x="538" 
d="M278 -16q-73 0 -129 32.5t-87 92t-31 140.5q0 70 31 131t87.5 98.5t131.5 37.5q42 0 82 -11.5t72.5 -39.5t52 -76t18.5 -120l-328 -6q0 -54 13.5 -97t44.5 -68t83 -25q20 0 45.5 7t52 23.5t49.5 44.5l45 -42q-36 -51 -77 -77.5t-81.5 -35.5t-74.5 -9zM184 333h184
q-1 42 -11.5 66.5t-28.5 35.5t-42 11q-44 0 -69 -31.5t-33 -81.5z" />
    <glyph glyph-name="f" unicode="f" horiz-adv-x="369" 
d="M103 529q0 121 53 173.5t143 52.5q47 0 75 -13.5t40 -33.5t12 -41q0 -26 -16 -46t-46 -21q-29 -1 -45 15.5t-16 41.5q0 5 0.5 10t1.5 10q-5 5 -11.5 6.5t-11.5 1.5q-16 0 -25 -9.5t-12 -23.5t-3 -29v-123h112v-77l-111 -3l1 -257q0 -14 -1 -40.5t-3 -49.5q17 2 38.5 2.5
t31.5 0.5v-76h-267v65q28 0 40.5 11t16 31.5t3.5 46.5v264l-73 -1v83h73v29z" />
    <glyph glyph-name="g" unicode="g" horiz-adv-x="557" 
d="M256 -271q-86 0 -136 18.5t-71 48.5t-21 64q0 21 9 42t29.5 40.5t56.5 32.5q-41 11 -57.5 35.5t-16.5 52.5q0 26 21 58.5t76 49.5q-42 17 -69 53t-29 87q-2 60 30 106.5t84 72.5t109 26q26 0 60 -7t59 -24q11 31 28.5 58.5t42.5 45t56 17.5q34 0 51.5 -17.5t17.5 -46.5
q0 -12 -5.5 -26.5t-19 -24.5t-37.5 -10q-15 0 -30 11.5t-18 27.5q-13 -4 -26 -26t-15 -39q29 -25 44 -58t15 -71q0 -58 -32.5 -102.5t-84 -70t-110.5 -25.5q-13 0 -29 1.5t-31 1.5q-22 0 -37 -8t-15 -22q0 -19 29 -26t99 -11q77 -4 134.5 -19.5t89.5 -48.5t32 -91
q0 -43 -25 -75.5t-66.5 -55t-91.5 -34t-100 -11.5zM285 -202q71 0 107.5 26t36.5 54q0 21 -16 34.5t-47.5 21.5t-80.5 10q-22 2 -51 3t-51 5q-15 -12 -23 -30t-9 -35q-2 -40 34.5 -64.5t99.5 -24.5zM271 195q27 0 45.5 17t28 43t9.5 53q0 35 -9 67.5t-27.5 53t-47.5 20.5
q-40 0 -62 -36t-22 -82q0 -35 10 -66.5t29 -50.5t46 -19z" />
    <glyph glyph-name="h" unicode="h" horiz-adv-x="621" 
d="M339 65q28 0 40.5 11t16 31.5t3.5 46.5l-1 142q0 65 -19.5 96.5t-61.5 31.5q-25 0 -49.5 -11t-41.5 -26v-226q0 -14 -1 -39.5t-3 -48.5q17 2 36 2.5t29 0.5v-76h-262v65q28 0 40.5 11t15.5 31.5t3 46.5v411q0 18 1 41.5t3 45.5q-16 -1 -37.5 -1.5t-32.5 -1.5v76
q47 0 78.5 5t50 12t25.5 13h54v-295q20 16 46 28.5t53 20t47 7.5q92 0 130 -52.5t39 -168.5v-134q0 -14 -1 -39.5t-3 -48.5q16 2 35 2.5t30 0.5v-76h-263v65z" />
    <glyph glyph-name="i" unicode="i" horiz-adv-x="327" 
d="M41 65q28 0 40 11t15.5 31.5t3.5 46.5v166q0 18 1 41.5t3 45.5q-16 -1 -37.5 -1.5t-32.5 -1.5v76q46 0 78 5t50.5 12t25.5 13h54v-349q0 -14 -1 -39.5t-3 -48.5q16 2 35.5 2.5t29.5 0.5v-76h-262v65zM166 589q-34 0 -56 24t-22 58t23 58t54 24q32 0 53.5 -24t21.5 -58
t-20 -58t-54 -24z" />
    <glyph glyph-name="j" unicode="j" horiz-adv-x="284" 
d="M21 -271q-56 0 -82.5 25.5t-26.5 56.5q0 26 16.5 46.5t46.5 21.5q27 1 44 -16t17 -43q0 -4 -0.5 -8t-1.5 -9q6 -4 17 -4q19 0 27.5 12.5t11.5 30.5t3 32l-3 446q0 18 1 41.5t3 45.5q-16 -1 -37.5 -1.5t-32.5 -1.5v76q47 0 78.5 5t50 12t25.5 13h54v-508q0 -92 -27.5 -153
t-75.5 -90.5t-108 -29.5zM161 589q-34 0 -56 24t-22 58t23 58t54 24q32 0 53.5 -24t21.5 -58t-20 -58t-54 -24z" />
    <glyph glyph-name="k" unicode="k" horiz-adv-x="594" 
d="M25 0v65q28 0 40.5 11t16 31.5t3.5 46.5v411q0 18 1 41.5t3 45.5q-16 -1 -37.5 -1.5t-32.5 -1.5v76q46 0 77.5 5t50.5 12t25 13h55v-456h48l72 83q13 14 21.5 24t17.5 18h-53v76h225v-64q-35 -4 -62 -16.5t-46.5 -29.5t-33.5 -33l-64 -72q15 -7 29.5 -20.5t35.5 -41.5
l67 -88q6 -7 15.5 -19t21.5 -23.5t26 -19.5t29 -8v-65h-115q-32 0 -56 22.5t-55 64.5q-18 24 -37.5 51.5t-36 52t-26.5 38.5l-23 -1v-67q0 -14 -1 -39.5t-3 -48.5q16 2 35 2.5t30 0.5v-76h-263z" />
    <glyph glyph-name="l" unicode="l" horiz-adv-x="312" 
d="M25 65q28 0 40.5 11t15.5 31.5t3 46.5v411q0 18 1 41.5t3 45.5q-16 -1 -37.5 -1.5t-32.5 -1.5v76q47 0 78.5 5t50 12t25.5 13h54v-594q0 -14 -1 -39.5t-3 -48.5q17 2 36 2.5t29 0.5v-76h-262v65z" />
    <glyph glyph-name="m" unicode="m" horiz-adv-x="920" 
d="M41 0v65q28 0 40 11t15.5 31.5t3.5 46.5v168q0 18 1 40.5t3 44.5q-16 -1 -37.5 -1.5t-32.5 -1.5v76q46 0 78 5t50.5 12t25.5 13h49q2 -10 2.5 -25t1.5 -25q34 26 73.5 41t74.5 15q46 0 76 -16.5t48 -49.5q36 30 79.5 48t83.5 18q81 0 122.5 -46.5t41.5 -161.5v-147
q0 -14 -1 -39.5t-3 -48.5q16 2 35.5 2.5t29.5 0.5v-76h-253v65q23 0 33.5 11t13.5 31.5t3 46.5v153q-1 65 -21.5 90t-54.5 26q-26 1 -48.5 -9t-40.5 -24q5 -20 7 -44t2 -51v-67v-67q0 -14 -1 -39.5t-3 -48.5q16 2 35 2.5t30 0.5v-76h-258v65q26 0 37.5 11t14.5 31.5t3 46.5
l-1 156q0 65 -19 89t-53 25q-25 0 -46.5 -11t-38.5 -26v-25v-25v-176q0 -14 -1 -39.5t-3 -48.5q16 2 33 2.5t27 0.5v-76h-257z" />
    <glyph glyph-name="n" unicode="n" horiz-adv-x="636" 
d="M41 0v65q28 0 40 11t15.5 31.5t3.5 46.5v168q0 18 1 40.5t3 44.5q-16 -1 -37.5 -1.5t-32.5 -1.5v76q46 0 78 5t50.5 12t25.5 13h49q2 -13 2 -19t0.5 -11.5t3.5 -19.5q20 16 46 28.5t52 20t46 7.5q92 0 130.5 -52.5t38.5 -168.5v-134q0 -14 -1 -39.5t-3 -48.5q17 2 36 2.5
t29 0.5v-76h-262v65q28 0 40.5 11t16 31.5t3.5 46.5l-1 142q0 65 -18.5 96.5t-62.5 31.5q-25 0 -49.5 -11t-41.5 -26v-28.5v-28.5v-169q0 -14 -1 -39.5t-3 -48.5q16 2 35.5 2.5t29.5 0.5v-76h-262z" />
    <glyph glyph-name="o" unicode="o" horiz-adv-x="566" 
d="M286 -16q-72 0 -130 31t-91.5 88.5t-33.5 135.5q0 83 34.5 145.5t92 97t125.5 34.5q72 0 129 -31t90 -88.5t33 -137.5q0 -84 -32 -146t-88 -95.5t-129 -33.5zM290 55q40 1 60.5 28t28.5 68t8 83q0 37 -5.5 75t-17.5 69t-32.5 50t-50.5 18q-39 -1 -61.5 -28t-32 -67.5
t-9.5 -84.5q0 -51 11 -100t35.5 -80.5t65.5 -30.5z" />
    <glyph glyph-name="p" unicode="p" horiz-adv-x="601" 
d="M31 -255v65q28 0 40.5 11t16 31.5t3.5 46.5v423q0 18 1 40.5t3 44.5q-16 -1 -38 -1.5t-33 -1.5v76q47 0 78.5 5t50 12t25.5 13h49q2 -10 3 -24.5t2 -23.5q35 30 69.5 42t65.5 12q60 0 105.5 -31t71 -88t25.5 -134q0 -80 -31 -143.5t-86.5 -99.5t-130.5 -36
q-27 0 -48.5 5.5t-40.5 12.5v-96q0 -14 -0.5 -39.5t-2.5 -48.5q16 2 35 2.5t29 0.5v-76h-262zM305 59q46 1 71.5 27.5t35.5 69.5t10 92q0 46 -11 87t-35 66.5t-63 24.5q-25 -1 -46 -12.5t-35 -31.5v-61.5v-60.5v-60.5v-61v-61.5q11 -7 31 -13t42 -5z" />
    <glyph glyph-name="q" unicode="q" horiz-adv-x="573" 
d="M310 -255v65q28 0 40 11t15.5 31.5t3.5 46.5l1 141q-32 -31 -66.5 -43.5t-69.5 -12.5q-60 0 -105.5 31t-71 88t-25.5 134q0 81 31 144t87.5 99t131.5 36q56 0 88.5 -11t51.5 -11q8 0 18.5 4.5t16.5 11.5h54v-604q0 -14 -1 -39.5t-3 -48.5q16 2 35.5 2.5t29.5 0.5v-76
h-262zM286 74q25 0 47.5 13t35.5 34v234q0 38 -12.5 56.5t-30 25t-34.5 6.5q-44 0 -69 -28.5t-35 -72t-9 -90.5q1 -42 11.5 -83t33.5 -68t62 -27z" />
    <glyph glyph-name="r" unicode="r" horiz-adv-x="480" 
d="M41 65q28 0 40 11t15.5 31.5t3.5 46.5v168q0 18 1 40.5t3 44.5q-16 -1 -37.5 -1.5t-32.5 -1.5v76h40q39 0 71.5 10t42.5 20h49q2 -10 3 -37.5t1 -48.5q27 33 51 53t47.5 29.5t47.5 9.5q35 0 61 -19.5t26 -63.5q0 -15 -7 -31.5t-22 -27.5t-41 -11q-20 0 -41 12t-24 46
q-20 0 -40 -16.5t-35.5 -39t-21.5 -41.5v-163q0 -14 -1 -39.5t-3 -48.5q16 2 35.5 2.5t29.5 0.5v-76h-262v65z" />
    <glyph glyph-name="s" unicode="s" horiz-adv-x="485" 
d="M271 -16q-43 0 -84 11t-64 28l2 -30h-76l-4 172h65q3 -30 24 -55t55 -39.5t76 -14.5q17 0 32.5 5t26 16.5t10.5 28.5q0 19 -13.5 31t-39 23t-63.5 25q-31 12 -62.5 25t-58 31.5t-42.5 46t-16 67.5q0 29 11 57.5t34 52t58.5 37.5t84.5 14q27 0 61.5 -8.5t58.5 -25.5v29h76
v-177h-65q-6 35 -24.5 60t-47.5 38.5t-65 13.5q-25 0 -45.5 -12t-20.5 -41q0 -23 16 -36.5t44 -22.5t62 -21q51 -17 90.5 -40t62.5 -55.5t23 -79.5q0 -52 -26 -86t-67.5 -51t-88.5 -17z" />
    <glyph glyph-name="t" unicode="t" horiz-adv-x="413" 
d="M239 -16q-30 0 -57.5 7t-50 26.5t-35.5 57.5t-13 101l2 241h-68v83q31 1 60 21t49.5 52t27.5 67h74l-1 -140h127v-77l-127 -3l-1 -246q0 -23 4.5 -45.5t17.5 -37t38 -14.5q14 0 38.5 10t52.5 50l48 -45q-27 -40 -56 -62t-55.5 -32t-46.5 -12t-28 -2z" />
    <glyph glyph-name="u" unicode="u" horiz-adv-x="618" 
d="M248 -16q-60 0 -96.5 23t-53 72t-16.5 126v115q0 18 1 41.5t2 45.5q-16 -1 -37.5 -1.5t-32.5 -1.5v76h10q62 0 98 10t46 20h55v-306q0 -65 17 -96.5t54 -31.5q26 0 52.5 14.5t43.5 33.5v196q0 18 1 41.5t3 45.5q-16 -1 -37.5 -1.5t-32.5 -1.5v76h24q47 0 83 10.5t46 19.5
h55v-349q0 -14 -1 -39.5t-3 -48.5q16 2 35.5 2.5t29.5 0.5v-76h-190q-1 13 -2.5 26t-3.5 26q-31 -26 -66.5 -47t-83.5 -21z" />
    <glyph glyph-name="v" unicode="v" horiz-adv-x="538" 
d="M227 -3l-158 347q-11 25 -15.5 38t-6 22.5t-4.5 21.5l-37 -2v76h234v-64q-21 -1 -28 -12t-5 -28.5t9 -37.5l52 -128q8 -19 16 -39l16 -40h1q8 21 15.5 42t14.5 42l43 122q9 25 16.5 40t16.5 31l-62 -4v76h190v-64q-23 -4 -41 -25.5t-31 -48t-21 -46.5l-128 -319h-87z" />
    <glyph glyph-name="w" unicode="w" horiz-adv-x="811" 
d="M193 -3l-121 347l-13.5 39t-6.5 22t-5 21l-39 -2v76h240v-64q-31 -1 -36 -24t3 -54l34 -122q6 -22 11.5 -46.5t9.5 -48.5q5 21 10.5 46t16.5 62l73 251h109l80 -276q6 -21 12.5 -45.5t11.5 -44.5q4 20 11 44t13 43l39 127q8 27 14 44.5t15 35.5l-57 -4v76h190v-64
q-20 0 -35 -13t-26.5 -31.5t-18.5 -36t-10 -27.5l-114 -331h-106l-69 213q-3 11 -9.5 32t-13 45.5t-12.5 45.5q-5 -28 -15 -64t-19 -66t-13 -41l-55 -165h-99z" />
    <glyph glyph-name="x" unicode="x" horiz-adv-x="548" 
d="M40 0v64q20 8 38 25t38 40l87 100q-16 19 -32.5 38.5t-32.5 38.5t-33 38q-12 15 -31 39.5t-26 42.5l-27 -2v76h221v-64q-28 -1 -24.5 -17.5t21.5 -37.5l46 -54l39 46l24 28t25 27l-49 -4v76h176v-64q-20 -8 -37.5 -20t-32.5 -26.5t-30 -33.5l-67 -82l116 -135
q14 -16 26 -31.5t22 -33.5l34 2v-76h-236v64q32 2 33.5 15.5t-16.5 33.5l-60 63l-47 -56q-5 -7 -20.5 -24t-24.5 -24l46 4v-76h-166z" />
    <glyph glyph-name="y" unicode="y" horiz-adv-x="551" 
d="M148 -271q-38 0 -64.5 22.5t-26.5 59.5q0 27 17.5 47.5t45.5 21.5q22 1 37.5 -14.5t15.5 -42.5v-6t-1 -7q2 0 5 1q9 3 19.5 16.5t20.5 35.5q11 23 21.5 51.5t18.5 59.5l-158 317q-28 56 -36.5 84.5t-11.5 50.5l-46 -2v76h249v-64v0q-37 -4 -40.5 -28t8.5 -50l98 -224
q10 26 26 80.5t38 118.5q4 13 10.5 30.5t14.5 35t17 28.5l-57 -3v76h178v-64q-31 -7 -51.5 -38t-36.5 -76l-125 -357q-28 -81 -53 -133.5t-56 -77.5t-77 -25z" />
    <glyph glyph-name="z" unicode="z" horiz-adv-x="514" 
d="M35 0v72l230 303q17 22 32 39t19 21l-135 -2q-23 0 -37.5 -17.5t-23.5 -45.5t-14 -63h-62l14 193h405v-63l-223 -303q-14 -19 -28 -34t-28 -27l141 -4q32 -1 50.5 16t28.5 46.5t15 64.5h62l-15 -196h-431z" />
    <glyph glyph-name="braceleft" unicode="{" horiz-adv-x="368" 
d="M333 -271q-76 0 -126.5 24t-75.5 72t-25 118q0 29 2.5 64t5 69t2.5 60q0 51 -20 71.5t-76 20.5h-23v71h23q56 0 76 18t20 69q0 39 -5 81.5t-5 86.5q0 71 25 116.5t75.5 67.5t126.5 22h28v-71q-42 2 -68.5 -4.5t-39 -33t-12.5 -83.5q0 -15 1.5 -34t4 -39.5t4.5 -41.5
q5 -54 -15.5 -95t-60 -65t-91.5 -29v-2q51 -5 90.5 -29.5t60.5 -65t17 -94.5q-2 -25 -4.5 -52.5t-4.5 -51.5t-2 -40q0 -57 12.5 -85t39 -36.5t68.5 -7.5v-71h-28z" />
    <glyph glyph-name="bar" unicode="|" horiz-adv-x="259" 
d="M63 -271l-2 1031h138l-4 -1031h-132z" />
    <glyph glyph-name="braceright" unicode="}" horiz-adv-x="368" 
d="M35 -271q76 0 126.5 24t75.5 72t25 118q0 29 -2.5 64t-5 69t-2.5 60q0 51 20 71.5t76 20.5h23v71h-23q-56 0 -76 18t-20 69q0 39 5 81.5t5 86.5q0 71 -25 116.5t-75.5 67.5t-126.5 22h-28v-71q42 2 68.5 -4.5t39 -33t12.5 -83.5q0 -15 -1.5 -34t-4 -39.5t-4.5 -41.5
q-5 -54 15.5 -95t60 -65t91.5 -29v-2q-51 -5 -90.5 -29.5t-60.5 -65t-17 -94.5q2 -25 4.5 -52.5t4.5 -51.5t2 -40q0 -57 -12.5 -85t-39 -36.5t-68.5 -7.5v-71h28z" />
    <glyph glyph-name="asciitilde" unicode="~" horiz-adv-x="530" 
d="M369 201q-38 0 -63.5 11.5t-46 26t-42 26t-51.5 11.5q-40 0 -68 -14t-55 -34v118q32 26 60 39.5t67 13.5t63.5 -10.5t43.5 -24.5t38 -26t46 -14q36 -3 68.5 10.5t58.5 36.5v-118q-21 -22 -50.5 -37t-68.5 -15z" />
    <glyph glyph-name="uni00A0" unicode="&#xa0;" horiz-adv-x="263" 
 />
    <glyph glyph-name="exclamdown" unicode="&#xa1;" horiz-adv-x="237" 
d="M152 287l38 -412q3 -32 -15.5 -61.5t-56.5 -29.5q-41 0 -57.5 29.5t-13.5 61.5l37 412h68zM119 516q29 0 50.5 -23t21.5 -55t-22 -55t-51 -23q-31 0 -51.5 23t-20.5 55t22 55t51 23z" />
    <glyph glyph-name="cent" unicode="&#xa2;" horiz-adv-x="565" 
d="M257 -137v124q-58 9 -104.5 40.5t-74 85t-27.5 126.5q0 67 26 124t73 96.5t110 52.5l-1 114h89l-1 -112q78 -8 117 -48t39 -87q0 -29 -17.5 -51.5t-49.5 -23.5q-38 -1 -53 21.5t-15 43.5q0 9 3 21.5t9 22.5q-7 15 -21 22t-28.5 9.5t-23.5 1.5q-48 -3 -79 -48t-31 -130
q0 -50 12.5 -93.5t41.5 -71.5t78 -30q42 -1 82 20t68 57l46 -45q-44 -61 -91 -86t-93 -32l-1 -124h-83z" />
    <glyph glyph-name="sterling" unicode="&#xa3;" horiz-adv-x="573" 
d="M121 375q-5 22 -8.5 46.5t-3.5 53.5q0 77 29.5 131t77.5 82t103 28q62 0 99 -20.5t53.5 -49t16.5 -54.5q0 -29 -16.5 -51t-47.5 -23q-24 -1 -39 9.5t-22 25t-7 26.5q0 13 3.5 26.5t13.5 25.5q-4 6 -15 10.5t-28 4.5q-36 0 -56.5 -21t-29 -51.5t-8.5 -61.5q0 -39 4.5 -73
t9.5 -64h158v-77l-142 -3q6 -29 1 -59t-21 -56t-45 -46q24 9 43.5 12t36.5 3q37 0 63.5 -12.5t47 -25t39.5 -12.5q11 0 22 14t13 43h65q-3 -73 -31.5 -122.5t-84.5 -49.5q-16 0 -31.5 4t-30 11t-28.5 15.5t-28 17.5q-23 14 -52 26.5t-55 13.5q-9 -37 -32.5 -62.5
t-50.5 -25.5q-31 0 -43.5 17t-12.5 39q0 29 25 54.5t62 38.5q7 13 12 34t5 37q0 25 -3.5 47t-8.5 42l-79 -1v83h57z" />
    <glyph glyph-name="currency" unicode="&#xa4;" horiz-adv-x="566" 
d="M135 27l-72 58l57 66q-27 48 -27 103q0 28 8 55t22 52l-60 69l72 58l50 -63q20 13 45 20.5t53 7.5q29 0 53.5 -7.5t45.5 -20.5l50 62l72 -57l-61 -69q15 -25 22.5 -52t7.5 -55q0 -58 -27 -103l58 -66l-72 -58l-48 60q-21 -12 -46.5 -18.5t-54.5 -6.5t-54.5 6.5
t-45.5 18.5zM283 138q20 0 33.5 13t21.5 33.5t11 43t3 41.5q0 14 -3.5 33t-11.5 36.5t-21 29t-33 11.5q-19 0 -32.5 -11.5t-21 -29t-11 -36.5t-3.5 -33q0 -19 3 -41.5t10.5 -43t21 -33.5t33.5 -13z" />
    <glyph glyph-name="yen" unicode="&#xa5;" horiz-adv-x="722" 
d="M231 0v66q21 1 36.5 5t24.5 19t10 48h-109v77h110v50h-110v77h49l-124 189q-15 23 -26.5 51t-11.5 44q-16 -1 -26.5 -1.5t-21.5 -1.5v77h294v-66q-29 2 -48 -6t-23 -26t12 -45l77 -125q5 -7 14.5 -24.5t20 -37t15.5 -34.5q15 30 20 41t5.5 12l0.5 1l4.5 8.5t17.5 34.5
l52 102q5 11 14.5 28.5t20 35t18.5 28.5q-16 -1 -41 -2t-36 -2v77h221v-66q-34 -5 -59 -28.5t-54 -78.5l-99 -187h68v-73l-100 -1v-52l100 -1v-73l-100 -1q0 -13 -1 -25.5t-1.5 -22.5t-1.5 -17q17 2 43.5 2.5t36.5 0.5v-77h-292z" />
    <glyph glyph-name="brokenbar" unicode="&#xa6;" horiz-adv-x="248" 
d="M70 375l-3 385h113l-4 -385h-106zM70 -271l-3 384h113l-4 -384h-106z" />
    <glyph glyph-name="section" unicode="&#xa7;" horiz-adv-x="549" 
d="M267 -228q-55 0 -96.5 20t-65 51.5t-23.5 63.5q0 28 16 49t44 22q24 1 38 -9t20.5 -24t6.5 -25q0 -10 -2.5 -21t-8.5 -21q8 -16 28 -25.5t42 -9.5q31 0 50.5 12t29.5 30.5t10 38.5q0 31 -17.5 55.5t-44 45t-55 37t-51.5 31.5q-36 24 -69 52.5t-54 65.5t-21 86q0 40 21 80
t57 74q-23 29 -31 59.5t-9 58.5q-1 29 9.5 62t34 62.5t61.5 48t93 18.5t96.5 -20t65 -51t23.5 -64q0 -28 -15.5 -48.5t-44.5 -22.5q-24 0 -38 9.5t-20.5 23.5t-6.5 25t2.5 21.5t8.5 19.5q-7 16 -25.5 25.5t-41.5 9.5q-30 0 -50 -12.5t-29.5 -31t-10.5 -38.5q1 -34 18 -59.5
t43 -46t55.5 -37.5t54.5 -34q37 -23 68.5 -52t51.5 -66t20 -85q0 -39 -21.5 -80t-55.5 -75q13 -20 26.5 -46t13.5 -63q0 -28 -11 -61t-35 -62.5t-62 -48t-93 -18.5zM377 127q8 14 11.5 31.5t3.5 33.5q0 28 -15.5 51.5t-40.5 44t-54.5 39t-58 35.5t-50.5 33q-7 -15 -10.5 -31
t-3.5 -33q0 -28 15.5 -51.5t40.5 -44t54.5 -39t58 -35.5t49.5 -34z" />
    <glyph glyph-name="dieresis" unicode="&#xa8;" horiz-adv-x="427" 
d="M300 600q-27 0 -46.5 22t-19.5 53t20 53.5t47 22.5q29 0 47.5 -22.5t18.5 -53.5t-20 -53t-47 -22zM126 600q-27 0 -46.5 22t-19.5 53t20 53.5t47 22.5q29 0 47.5 -22.5t18.5 -53.5t-20 -53t-47 -22z" />
    <glyph glyph-name="copyright" unicode="&#xa9;" horiz-adv-x="915" 
d="M459 -71q-92 0 -167.5 30.5t-130.5 86t-85 130.5t-30 164q0 86 31 161t87 132t132 89.5t165 32.5q90 0 165 -32.5t129.5 -90t84 -132.5t29.5 -161q0 -85 -31.5 -159.5t-87.5 -130.5t-130.5 -88t-160.5 -32zM462 -14q78 0 140 28t106 77t67.5 113t23.5 136t-24 136.5
t-68.5 114t-107 78t-140.5 28.5q-76 0 -139 -28.5t-108.5 -78t-70 -114t-24.5 -136.5t24 -136t69 -113t109 -77t143 -28zM466 94q-69 0 -123 32.5t-85 88t-31 123.5q0 44 14.5 89.5t44.5 83t75 59.5t106 20q30 -1 57 -8.5t53 -26.5l-1 31h76v-175h-67q-7 60 -39.5 85
t-72.5 25q-35 0 -64 -22t-46 -61t-17 -89q0 -45 17.5 -83t51 -61t79.5 -24q36 -1 72 17.5t65 55.5l48 -45q-33 -45 -72 -70t-75.5 -35t-65.5 -10z" />
    <glyph glyph-name="ordfeminine" unicode="&#xaa;" horiz-adv-x="386" 
d="M133 367q-46 0 -72 21t-26 59q0 29 16 49.5t42.5 34.5t58.5 21.5t63 9.5v43q0 13 -2 25.5t-9.5 21t-24.5 9.5q-9 0 -20 -3t-18 -11q4 -5 5.5 -13.5t1.5 -14.5q0 -14 -11.5 -32.5t-38.5 -17.5q-23 0 -35.5 14t-12.5 35q0 26 18 48t49.5 36t71.5 14q60 0 92 -31t32 -99
q0 -25 -0.5 -56.5t-0.5 -57.5q0 -10 2.5 -22t14.5 -12q4 0 8 0.5t9 4.5l20 -29q-15 -21 -37.5 -34t-43.5 -13t-39.5 14t-22.5 43q-14 -28 -41 -42.5t-49 -14.5zM166 441q12 0 24 6t25 19v24v24q-20 -1 -38 -7.5t-29 -17t-10 -25.5q1 -9 7.5 -16t20.5 -7z" />
    <glyph glyph-name="guillemotleft" unicode="&#xab;" horiz-adv-x="493" 
d="M287 -17l47 49l-189 242v1l186 233l-47 46l-264 -269v-24zM410 60l47 38l-100 169v1l98 169l-46 39l-169 -194v-23z" />
    <glyph glyph-name="logicalnot" unicode="&#xac;" horiz-adv-x="530" 
d="M398 149l-3 117l-359 -2v98l450 -3v-210h-88z" />
    <glyph glyph-name="uni00AD" unicode="&#xad;" horiz-adv-x="293" 
d="M51 260v108h368v-105z" />
    <glyph glyph-name="registered" unicode="&#xae;" horiz-adv-x="915" 
d="M459 -71q-92 0 -167.5 30.5t-130.5 86t-85 130.5t-30 164q0 86 31 161t87 132t132 89.5t165 32.5q90 0 165 -32.5t129.5 -90t84 -132.5t29.5 -161q0 -85 -31.5 -159.5t-87.5 -130.5t-130.5 -88t-160.5 -32zM462 -14q78 0 140 28t106 77t67.5 113t23.5 136t-24 136.5
t-68.5 114t-107 78t-140.5 28.5q-76 0 -139 -28.5t-108.5 -78t-70 -114t-24.5 -136.5t24 -136t69 -113t109 -77t143 -28zM261 118v44q23 2 35.5 10t12.5 49v253q0 20 1 36.5t2 24.5l-51 -2v52q32 0 63.5 0.5t63 0.5h62.5q88 0 140.5 -32.5t50.5 -112.5q-1 -28 -12.5 -54
t-36 -45.5t-63.5 -30.5q13 -5 22 -17t18 -26q30 -46 45 -68.5t26 -29.5t28 -8v-44h-105q-12 9 -25 25t-26 38q-30 50 -43 73t-16.5 30.5t-7.5 12.5h-18.5h-19.5v-68q0 -18 -0.5 -35.5t-0.5 -25.5l56 2v-52h-201zM435 354q33 0 55.5 11t34 32t11.5 50q0 39 -16 56.5t-37 22
t-35 4.5q-21 0 -31 -10.5t-10 -43.5v-119q8 -2 14 -2.5t14 -0.5z" />
    <glyph glyph-name="macron" unicode="&#xaf;" horiz-adv-x="374" 
d="M45 627v96h284v-92z" />
    <glyph glyph-name="degree" unicode="&#xb0;" horiz-adv-x="382" 
d="M190 395q-49 0 -85.5 21.5t-56.5 57.5t-20 82t22.5 82t60 57t81.5 21q50 0 86.5 -21t56 -57t19.5 -82t-22.5 -82t-59.5 -57.5t-82 -21.5zM191 466q35 0 57 27t22 63t-22 63t-57 27q-34 0 -56 -27t-22 -63t22 -63t56 -27z" />
    <glyph glyph-name="plusminus" unicode="&#xb1;" horiz-adv-x="530" 
d="M42 399h446v-78h-446v78zM304 583v-446h-78v446h78zM42 59h446v-78h-446v78z" />
    <glyph glyph-name="uni00B2" unicode="&#xb2;" horiz-adv-x="375" 
d="M46 302q1 46 15 78.5t36.5 58t48.5 48.5q39 35 50.5 65.5t11.5 49.5q0 30 -13 43t-34 13q-10 0 -20 -5t-14 -11q8 -7 11 -16.5t3 -14.5q0 -13 -12 -30.5t-39 -17.5q-22 1 -34.5 16.5t-12.5 37.5q0 21 15.5 44t46 39t74.5 16q35 0 66.5 -10.5t51.5 -34t20 -62.5
q0 -34 -22.5 -62t-57.5 -55t-72 -60q-14 -12 -20.5 -22t-13.5 -24l123 -2q9 0 15.5 2.5t10 10.5t3.5 24h48l-6 -119h-279z" />
    <glyph glyph-name="uni00B3" unicode="&#xb3;" horiz-adv-x="365" 
d="M168 292q-61 0 -96.5 30t-35.5 67q0 22 14 39t36 18q28 1 38 -15.5t10 -34.5q0 -5 -3 -16.5t-11 -18.5q8 -10 22 -12.5t22 -2.5q29 0 46 19t17 48q0 21 -9 37.5t-26.5 25.5t-44.5 9q-7 0 -17.5 -0.5t-16.5 -0.5v54q9 0 18 -0.5t17 -0.5q25 0 39.5 11t20.5 26.5t5 30.5
q0 27 -13 42t-38 15q-13 0 -22.5 -4t-13.5 -8q8 -6 11 -16t3 -15q0 -13 -10.5 -30.5t-38.5 -16.5q-22 1 -35.5 15t-13.5 36q0 19 14.5 40.5t44.5 37t77 15.5q57 0 96 -26t39 -79q0 -28 -22 -54t-54 -34q47 -10 70 -36t25 -64q2 -55 -39.5 -93t-124.5 -38z" />
    <glyph glyph-name="acute" unicode="&#xb4;" horiz-adv-x="282" 
d="M90 565l-46 41l82 140q11 17 26.5 26.5t33.5 10t34 -12.5q16 -14 18 -32.5t-5.5 -36t-21.5 -30.5z" />
    <glyph glyph-name="uni00B5" unicode="&#xb5;" horiz-adv-x="612" 
d="M154 -271q-38 0 -54 29t-16 75v667h125v-316q0 -31 10.5 -54.5t29 -37t42.5 -13.5q18 0 37 8t38 29v384h125l-1 -358q0 -8 1 -20t6 -21.5t17 -9.5q7 0 16 4t21 14l33 -42q-16 -24 -49.5 -48t-71.5 -24q-29 0 -52 11.5t-32 37.5q-28 -31 -52 -41t-55 -10q-32 0 -61.5 20
t-52.5 69l-6 -5q20 -63 33 -105.5t20 -72t10 -51.5t3 -43q0 -28 -13.5 -52t-50.5 -24z" />
    <glyph glyph-name="paragraph" unicode="&#xb6;" horiz-adv-x="573" 
d="M166 -255l2 656q-32 6 -61 22t-47.5 46.5t-18.5 79.5q0 52 22 85t57 49.5t73 16.5h292l-2 -955h-111l2 886l-94 -1l-2 -885h-112z" />
    <glyph glyph-name="periodcentered" unicode="&#xb7;" horiz-adv-x="226" 
d="M115 264q-33 0 -53.5 23t-20.5 55t22 55t51 23q31 0 51.5 -23t20.5 -55t-19.5 -55t-51.5 -23z" />
    <glyph glyph-name="cedilla" unicode="&#xb8;" horiz-adv-x="325" 
d="M53 -259l-8 52q12 2 32 6.5t40 12t34 18.5t14 26q0 17 -13 22t-29 1t-26 -12l-37 16l31 127h76l-28 -79q12 7 33.5 11.5t34.5 4.5q32 -1 52.5 -17.5t20.5 -52.5q0 -35 -24 -59t-60.5 -39.5t-75 -24.5t-67.5 -13z" />
    <glyph glyph-name="uni00B9" unicode="&#xb9;" horiz-adv-x="278" 
d="M64 301v38q20 1 30 8.5t10 41.5v230l-63 -37l-20 39l146 95h35v-321q0 -15 -0.5 -29t-1.5 -22q9 1 22.5 1h20.5v-44h-179z" />
    <glyph glyph-name="ordmasculine" unicode="&#xba;" horiz-adv-x="378" 
d="M188 364q-48 0 -83.5 22t-55 60t-19.5 87q0 52 19.5 93.5t56 65.5t85.5 24t84 -21.5t54 -60t19 -89.5q1 -53 -18.5 -94t-55.5 -64t-86 -23zM193 420q24 1 37.5 29t13.5 82q0 40 -5.5 69.5t-17.5 46t-32 15.5q-24 -1 -38 -29t-14 -83q0 -40 6 -69.5t18.5 -45t31.5 -15.5z
" />
    <glyph glyph-name="guillemotright" unicode="&#xbb;" horiz-adv-x="493" 
d="M206 -17l-47 49l189 242v1l-186 233l47 46l264 -269v-24zM83 60l-47 38l100 169v1l-98 169l46 39l169 -194v-23z" />
    <glyph glyph-name="onequarter" unicode="&#xbc;" horiz-adv-x="777" 
d="M64 301v38q20 1 30 8.5t10 41.5v230l-63 -37l-20 39l146 95h35v-321q0 -15 -0.5 -29t-1.5 -22q9 1 22.5 1h20.5v-44h-179zM188 -16l-65 48l443 684l68 -53zM539 -4v38q20 1 30.5 8.5t10.5 41.5v13l-151 1v58l213 255h35v-259l59 -1v-55h-59q0 -17 -0.5 -32t-1.5 -25
q9 1 22.5 1h20.5v-44h-179zM582 153l4 120l-90 -118z" />
    <glyph glyph-name="onehalf" unicode="&#xbd;" horiz-adv-x="795" 
d="M64 301v38q20 1 30 8.5t10 41.5v230l-63 -37l-20 39l146 95h35v-321q0 -15 -0.5 -29t-1.5 -22q9 1 22.5 1h20.5v-44h-179zM188 -16l-65 48l443 684l68 -53zM469 -3q1 46 15 78.5t36.5 58t48.5 48.5q39 35 50.5 65.5t11.5 49.5q0 30 -13 43t-34 13q-10 0 -20 -5t-14 -11
q8 -7 11 -16.5t3 -14.5q0 -13 -12 -30.5t-39 -17.5q-22 1 -34.5 16.5t-12.5 37.5q0 21 15.5 44t46 39t74.5 16q35 0 66.5 -10.5t51.5 -34t20 -62.5q0 -34 -22.5 -62t-57.5 -55t-72 -60q-14 -12 -20.5 -22t-13.5 -24l123 -2q9 0 15.5 2.5t10 10.5t3.5 24h48l-6 -119h-279z
" />
    <glyph glyph-name="threequarters" unicode="&#xbe;" horiz-adv-x="816" 
d="M168 292q-61 0 -96.5 30t-35.5 67q0 22 14 39t36 18q28 1 38 -15.5t10 -34.5q0 -5 -3 -16.5t-11 -18.5q8 -10 22 -12.5t22 -2.5q29 0 46 19t17 48q0 21 -9 37.5t-26.5 25.5t-44.5 9q-7 0 -17.5 -0.5t-16.5 -0.5v54q9 0 18 -0.5t17 -0.5q25 0 39.5 11t20.5 26.5t5 30.5
q0 27 -13 42t-38 15q-13 0 -22.5 -4t-13.5 -8q8 -6 11 -16t3 -15q0 -13 -10.5 -30.5t-38.5 -16.5q-22 1 -35.5 15t-13.5 36q0 19 14.5 40.5t44.5 37t77 15.5q57 0 96 -26t39 -79q0 -28 -22 -54t-54 -34q47 -10 70 -36t25 -64q2 -55 -39.5 -93t-124.5 -38zM227 -16l-65 48
l443 684l68 -53zM578 -4v38q20 1 30.5 8.5t10.5 41.5v13l-151 1v58l213 255h35v-259l59 -1v-55h-59q0 -17 -0.5 -32t-1.5 -25q9 1 22.5 1h20.5v-44h-179zM621 153l4 120l-90 -118z" />
    <glyph glyph-name="questiondown" unicode="&#xbf;" horiz-adv-x="493" 
d="M261 319q32 0 59.5 -16t27.5 -53q0 -17 -6.5 -32t-24 -36.5t-50.5 -54.5q-35 -35 -58 -71t-23 -93q0 -31 7.5 -55.5t26 -39t52.5 -14.5q16 0 31 5t26.5 12t18.5 15q-11 10 -14.5 24.5t-3.5 25.5q0 12 7 28.5t22 28t39 10.5q32 -2 47.5 -21.5t15.5 -49.5q0 -36 -27 -70
t-74 -56t-107 -22q-80 0 -126.5 23t-66.5 59.5t-20 76.5q0 42 21 76.5t52 63.5t62 52.5t52 44.5t21 40q0 13 -9.5 21.5t-30.5 8.5q-6 0 -13.5 -1t-16.5 -3l-15 51q25 13 52 17.5t46 4.5zM251 516q29 0 50.5 -23t21.5 -55t-22 -55t-51 -23q-31 0 -51.5 23t-20.5 55t22 55
t51 23z" />
    <glyph glyph-name="Agrave" unicode="&#xc0;" horiz-adv-x="668" 
d="M4 0v69q28 0 45 16t28.5 42t22.5 56l195 535h70l213 -545q6 -15 16 -45.5t12 -53.5q17 2 32.5 2.5t25.5 0.5v-77h-269v66q28 0 38.5 11.5t9.5 31.5t-11 45l-20 55l-217 -4l-16 -47q-5 -13 -14.5 -38.5t-17.5 -42.5q16 2 38.5 2.5t32.5 0.5v-80h-214zM220 280h167l-46 125
q-13 36 -23 72.5t-15 64.5h-1l-12 -51t-25 -81zM352 750l-142 75q-15 10 -26 25.5t-13 33.5t9 35q13 17 30 20.5t35 -2.5t32 -20l111 -118z" />
    <glyph glyph-name="Aacute" unicode="&#xc1;" horiz-adv-x="668" 
d="M4 0v69q28 0 45 16t28.5 42t22.5 56l195 535h70l213 -545q6 -15 16 -45.5t12 -53.5q17 2 32.5 2.5t25.5 0.5v-77h-269v66q28 0 38.5 11.5t9.5 31.5t-11 45l-20 55l-217 -4l-16 -47q-5 -13 -14.5 -38.5t-17.5 -42.5q16 2 38.5 2.5t32.5 0.5v-80h-214zM220 280h167l-46 125
q-13 36 -23 72.5t-15 64.5h-1l-12 -51t-25 -81zM306 750l142 75q15 10 26 25.5t13 33.5t-9 35q-13 17 -30 20.5t-35 -2.5t-32 -20l-111 -118z" />
    <glyph glyph-name="Acircumflex" unicode="&#xc2;" horiz-adv-x="668" 
d="M4 0v69q28 0 45 16t28.5 42t22.5 56l195 535h70l213 -545q6 -15 16 -45.5t12 -53.5q17 2 32.5 2.5t25.5 0.5v-77h-269v66q28 0 38.5 11.5t9.5 31.5t-11 45l-20 55l-217 -4l-16 -47q-5 -13 -14.5 -38.5t-17.5 -42.5q16 2 38.5 2.5t32.5 0.5v-80h-214zM220 280h167l-46 125
q-13 36 -23 72.5t-15 64.5h-1l-12 -51t-25 -81zM469 774l-139 87l-143 -85l-27 45l165 150h19l157 -150z" />
    <glyph glyph-name="Atilde" unicode="&#xc3;" horiz-adv-x="668" 
d="M4 0v69q28 0 45 16t28.5 42t22.5 56l195 535h70l213 -545q6 -15 16 -45.5t12 -53.5q17 2 32.5 2.5t25.5 0.5v-77h-269v66q28 0 38.5 11.5t9.5 31.5t-11 45l-20 55l-217 -4l-16 -47q-5 -13 -14.5 -38.5t-17.5 -42.5q16 2 38.5 2.5t32.5 0.5v-80h-214zM220 280h167l-46 125
q-13 36 -23 72.5t-15 64.5h-1l-12 -51t-25 -81zM539 922q-18 -51 -41 -78.5t-47 -37.5t-45 -10q-23 0 -41.5 7.5t-35 17.5t-33.5 17.5t-38 7.5q-19 0 -41.5 -11t-42.5 -41l-56 37q23 56 61.5 81.5t74.5 25.5q25 0 44 -7.5t35 -17t32.5 -17t35.5 -7.5q20 0 43.5 18.5
t37.5 46.5z" />
    <glyph glyph-name="Adieresis" unicode="&#xc4;" horiz-adv-x="668" 
d="M4 0v69q28 0 45 16t28.5 42t22.5 56l195 535h70l213 -545q6 -15 16 -45.5t12 -53.5q17 2 32.5 2.5t25.5 0.5v-77h-269v66q28 0 38.5 11.5t9.5 31.5t-11 45l-20 55l-217 -4l-16 -47q-5 -13 -14.5 -38.5t-17.5 -42.5q16 2 38.5 2.5t32.5 0.5v-80h-214zM220 280h167l-46 125
q-13 36 -23 72.5t-15 64.5h-1l-12 -51t-25 -81zM242 797q-27 0 -47 22t-20 53q0 32 20.5 54.5t47.5 22.5q28 0 47 -22.5t19 -54.5q0 -31 -20 -53t-47 -22zM416 797q-26 0 -46 22t-20 53q0 32 20.5 54.5t46.5 22.5q29 0 47.5 -22.5t18.5 -54.5q0 -31 -20 -53t-47 -22z" />
    <glyph glyph-name="Aring" unicode="&#xc5;" horiz-adv-x="668" 
d="M4 0v69q28 0 45 16t28.5 42t22.5 56l195 535h70l213 -545q6 -15 16 -45.5t12 -53.5q17 2 32.5 2.5t25.5 0.5v-77h-269v66q28 0 38.5 11.5t9.5 31.5t-11 45l-20 55l-217 -4l-16 -47q-5 -13 -14.5 -38.5t-17.5 -42.5q16 2 38.5 2.5t32.5 0.5v-80h-214zM220 280h167l-46 125
q-13 36 -23 72.5t-15 64.5h-1l-12 -51t-25 -81zM330 751q-32 0 -62 13t-50 39.5t-22 68.5q-1 40 18.5 70t50.5 47t64 17q31 0 61 -13t50.5 -39.5t22.5 -68.5q1 -42 -19 -72t-51 -46t-63 -16zM336 805q17 1 27.5 16t10.5 46q0 44 -13.5 66t-35.5 20q-18 -1 -29 -19t-11 -49
q0 -40 14.5 -60.5t36.5 -19.5z" />
    <glyph glyph-name="AE" unicode="&#xc6;" horiz-adv-x="935" 
d="M-6 0v66q24 0 44.5 16.5t39.5 41t35 47.5l323 455l-75 -3v77h500l6 -194h-66q0 55 -19 83t-47 37.5t-55 8.5l-36 -1q-21 0 -36 -5.5t-23 -24t-8 -57.5v-150h117l-4 87h77v-243h-66q0 42 -13 60.5t-35.5 23.5t-49.5 4l-26 -1v-164q0 -27 -1 -51t-3 -37h134q30 0 58 13.5
t46 45t18 85.5h66l-6 -220h-528v66q23 1 38.5 6t24 23t8.5 58v54l-196 -5l-35 -51q-16 -23 -31.5 -43.5t-31.5 -32.5l80 2v-77h-224zM285 276h147v224z" />
    <glyph glyph-name="Ccedilla" unicode="&#xc7;" horiz-adv-x="688" 
d="M566 476q-13 83 -55.5 125t-112.5 43q-52 0 -91 -24t-64.5 -64t-38 -91t-12.5 -105q0 -86 24.5 -152.5t71.5 -104.5t114 -38q63 0 125 32.5t104 90.5l48 -44q-49 -67 -103 -101.5t-105.5 -46.5t-92.5 -12q-77 0 -140 27.5t-108.5 76t-70 113t-24.5 139.5q0 68 22 135
t65.5 121.5t109.5 87t153 32.5q39 0 85.5 -12.5t87.5 -36.5l-4 42h77v-233h-65zM295 -275l-8 55q12 2 32 8t40 15.5t34 22.5t14 28q0 19 -13 23t-29 -0.5t-26 -12.5l-41 15l30 131h81l-28 -77q12 6 33.5 11t34.5 4q32 -1 54 -19.5t22 -53.5t-24.5 -61.5t-61.5 -44.5t-76 -29
t-68 -15z" />
    <glyph glyph-name="Egrave" unicode="&#xc8;" horiz-adv-x="624" 
d="M390 241q0 42 -13 60.5t-35.5 23.5t-49.5 4l-26 -1v-164q0 -27 -1 -51t-3 -37h134q30 0 58 13.5t46 45t18 85.5h65l-5 -220h-528v66q23 1 38.5 6t24 23t8.5 58v383q0 27 1.5 52t2.5 38q-16 -1 -40 -1.5t-35 -1.5v77h500l6 -194h-66q0 55 -19 83t-47 37.5t-55 8.5l-36 -1
q-21 0 -36 -5.5t-23 -24t-8 -57.5v-150h117l-4 87h77v-243h-66zM347 750l-142 75q-15 10 -26 25.5t-13 33.5t9 35q13 17 30 20.5t35 -2.5t32 -20l111 -118z" />
    <glyph glyph-name="Eacute" unicode="&#xc9;" horiz-adv-x="624" 
d="M390 241q0 42 -13 60.5t-35.5 23.5t-49.5 4l-26 -1v-164q0 -27 -1 -51t-3 -37h134q30 0 58 13.5t46 45t18 85.5h65l-5 -220h-528v66q23 1 38.5 6t24 23t8.5 58v383q0 27 1.5 52t2.5 38q-16 -1 -40 -1.5t-35 -1.5v77h500l6 -194h-66q0 55 -19 83t-47 37.5t-55 8.5l-36 -1
q-21 0 -36 -5.5t-23 -24t-8 -57.5v-150h117l-4 87h77v-243h-66zM284 750l142 75q15 10 26 25.5t13 33.5t-9 35q-13 17 -30 20.5t-35 -2.5t-32 -20l-111 -118z" />
    <glyph glyph-name="Ecircumflex" unicode="&#xca;" horiz-adv-x="624" 
d="M390 241q0 42 -13 60.5t-35.5 23.5t-49.5 4l-26 -1v-164q0 -27 -1 -51t-3 -37h134q30 0 58 13.5t46 45t18 85.5h65l-5 -220h-528v66q23 1 38.5 6t24 23t8.5 58v383q0 27 1.5 52t2.5 38q-16 -1 -40 -1.5t-35 -1.5v77h500l6 -194h-66q0 55 -19 83t-47 37.5t-55 8.5l-36 -1
q-21 0 -36 -5.5t-23 -24t-8 -57.5v-150h117l-4 87h77v-243h-66zM464 774l-139 87l-143 -85l-27 45l165 150h19l157 -150z" />
    <glyph glyph-name="Edieresis" unicode="&#xcb;" horiz-adv-x="624" 
d="M390 241q0 42 -13 60.5t-35.5 23.5t-49.5 4l-26 -1v-164q0 -27 -1 -51t-3 -37h134q30 0 58 13.5t46 45t18 85.5h65l-5 -220h-528v66q23 1 38.5 6t24 23t8.5 58v383q0 27 1.5 52t2.5 38q-16 -1 -40 -1.5t-35 -1.5v77h500l6 -194h-66q0 55 -19 83t-47 37.5t-55 8.5l-36 -1
q-21 0 -36 -5.5t-23 -24t-8 -57.5v-150h117l-4 87h77v-243h-66zM237 797q-27 0 -47 22t-20 53q0 32 20.5 54.5t47.5 22.5q28 0 47 -22.5t19 -54.5q0 -31 -20 -53t-47 -22zM411 797q-26 0 -46 22t-20 53q0 32 20.5 54.5t46.5 22.5q29 0 47.5 -22.5t18.5 -54.5q0 -31 -20 -53
t-47 -22z" />
    <glyph glyph-name="Igrave" unicode="&#xcc;" horiz-adv-x="387" 
d="M337 634q-22 -1 -38 -6t-24.5 -22.5t-8.5 -58.5v-383q0 -27 -1 -52t-3 -38q16 2 40.5 2.5t34.5 0.5v-77h-287v66q23 1 38.5 6t24 23t8.5 58v383q0 27 1.5 52t2.5 38q-16 -1 -40 -1.5t-35 -1.5v77h287v-66zM215 750l-142 75q-15 10 -26 25.5t-13 33.5t9 35q13 17 30 20.5
t35 -2.5t32 -20l111 -118z" />
    <glyph glyph-name="Iacute" unicode="&#xcd;" horiz-adv-x="387" 
d="M337 634q-22 -1 -38 -6t-24.5 -22.5t-8.5 -58.5v-383q0 -27 -1 -52t-3 -38q16 2 40.5 2.5t34.5 0.5v-77h-287v66q23 1 38.5 6t24 23t8.5 58v383q0 27 1.5 52t2.5 38q-16 -1 -40 -1.5t-35 -1.5v77h287v-66zM152 750l142 75q15 10 26 25.5t13 33.5t-9 35q-13 17 -30 20.5
t-35 -2.5t-32 -20l-111 -118z" />
    <glyph glyph-name="Icircumflex" unicode="&#xce;" horiz-adv-x="387" 
d="M337 634q-22 -1 -38 -6t-24.5 -22.5t-8.5 -58.5v-383q0 -27 -1 -52t-3 -38q16 2 40.5 2.5t34.5 0.5v-77h-287v66q23 1 38.5 6t24 23t8.5 58v383q0 27 1.5 52t2.5 38q-16 -1 -40 -1.5t-35 -1.5v77h287v-66zM332 774l-139 87l-143 -85l-27 45l165 150h19l157 -150z" />
    <glyph glyph-name="Idieresis" unicode="&#xcf;" horiz-adv-x="387" 
d="M337 634q-22 -1 -38 -6t-24.5 -22.5t-8.5 -58.5v-383q0 -27 -1 -52t-3 -38q16 2 40.5 2.5t34.5 0.5v-77h-287v66q23 1 38.5 6t24 23t8.5 58v383q0 27 1.5 52t2.5 38q-16 -1 -40 -1.5t-35 -1.5v77h287v-66zM105 797q-27 0 -47 22t-20 53q0 32 20.5 54.5t47.5 22.5
q28 0 47 -22.5t19 -54.5q0 -31 -20 -53t-47 -22zM279 797q-26 0 -46 22t-20 53q0 32 20.5 54.5t46.5 22.5q29 0 47.5 -22.5t18.5 -54.5q0 -31 -20 -53t-47 -22z" />
    <glyph glyph-name="Eth" unicode="&#xd0;" horiz-adv-x="759" 
d="M30 312v79h391v-75zM51 66q23 1 38.5 6t24 23t8.5 58v383q0 27 1.5 52t2.5 38q-16 -1 -40 -1.5t-35 -1.5v77l291 1q99 0 171.5 -29.5t119 -79.5t69.5 -111.5t23 -123.5q0 -61 -21.5 -124t-67.5 -115.5t-120 -85t-179 -32.5h-286v66zM267 164q0 -27 -1 -52t-3 -38
q10 1 27.5 0.5t36.5 -1t31 -0.5q55 0 94.5 22t65 59.5t37.5 84.5t12 97q0 102 -28 167t-78.5 97t-120.5 34q-24 1 -40.5 -4.5t-24.5 -23.5t-8 -57v-385z" />
    <glyph glyph-name="Ntilde" unicode="&#xd1;" horiz-adv-x="773" 
d="M582 -10l-320 409q-13 17 -27 36t-28 39h-1l2 -310q0 -27 -1 -52t-3 -38q16 2 40.5 2.5t34.5 0.5v-77h-228v66q23 1 38.5 6t24 23t8.5 58l-2 383q0 27 1 52t3 38q-16 -1 -40.5 -1.5t-35.5 -1.5v77h157l306 -386q25 -32 41.5 -55t28.5 -40h1v317q0 27 1 52t2 38
q-16 -1 -40 -1.5t-35 -1.5v77h228v-66q-22 -1 -38 -6t-24.5 -22.5t-8.5 -58.5v-557h-85zM597 922q-18 -51 -41 -78.5t-47 -37.5t-45 -10q-23 0 -41.5 7.5t-35 17.5t-33.5 17.5t-38 7.5q-19 0 -41.5 -11t-42.5 -41l-56 37q23 56 61.5 81.5t74.5 25.5q25 0 44 -7.5t35 -17
t32.5 -17t35.5 -7.5q20 0 43.5 18.5t37.5 46.5z" />
    <glyph glyph-name="Ograve" unicode="&#xd2;" horiz-adv-x="769" 
d="M383 -16q-95 0 -161.5 32t-107.5 85.5t-60 118.5t-19 130q0 63 21.5 127.5t65 118.5t109.5 87t155 33q91 0 157 -33t108 -87.5t62.5 -118.5t20.5 -127q0 -62 -21.5 -126t-65 -118.5t-109.5 -88t-155 -33.5zM394 57q52 0 87 25.5t56 66.5t30 89.5t9 94.5q0 69 -12 126
t-37 98.5t-63.5 64t-90.5 21.5q-51 -1 -86 -27.5t-56 -68t-30 -90.5t-9 -95q0 -47 10.5 -100t33.5 -100t62 -76t96 -29zM407 750l-142 75q-15 10 -26 25.5t-13 33.5t9 35q13 17 30 20.5t35 -2.5t32 -20l111 -118z" />
    <glyph glyph-name="Oacute" unicode="&#xd3;" horiz-adv-x="769" 
d="M383 -16q-95 0 -161.5 32t-107.5 85.5t-60 118.5t-19 130q0 63 21.5 127.5t65 118.5t109.5 87t155 33q91 0 157 -33t108 -87.5t62.5 -118.5t20.5 -127q0 -62 -21.5 -126t-65 -118.5t-109.5 -88t-155 -33.5zM394 57q52 0 87 25.5t56 66.5t30 89.5t9 94.5q0 69 -12 126
t-37 98.5t-63.5 64t-90.5 21.5q-51 -1 -86 -27.5t-56 -68t-30 -90.5t-9 -95q0 -47 10.5 -100t33.5 -100t62 -76t96 -29zM344 750l142 75q15 10 26 25.5t13 33.5t-9 35q-13 17 -30 20.5t-35 -2.5t-32 -20l-111 -118z" />
    <glyph glyph-name="Ocircumflex" unicode="&#xd4;" horiz-adv-x="769" 
d="M383 -16q-95 0 -161.5 32t-107.5 85.5t-60 118.5t-19 130q0 63 21.5 127.5t65 118.5t109.5 87t155 33q91 0 157 -33t108 -87.5t62.5 -118.5t20.5 -127q0 -62 -21.5 -126t-65 -118.5t-109.5 -88t-155 -33.5zM394 57q52 0 87 25.5t56 66.5t30 89.5t9 94.5q0 69 -12 126
t-37 98.5t-63.5 64t-90.5 21.5q-51 -1 -86 -27.5t-56 -68t-30 -90.5t-9 -95q0 -47 10.5 -100t33.5 -100t62 -76t96 -29zM524 774l-139 87l-143 -85l-27 45l165 150h19l157 -150z" />
    <glyph glyph-name="Otilde" unicode="&#xd5;" horiz-adv-x="769" 
d="M383 -16q-95 0 -161.5 32t-107.5 85.5t-60 118.5t-19 130q0 63 21.5 127.5t65 118.5t109.5 87t155 33q91 0 157 -33t108 -87.5t62.5 -118.5t20.5 -127q0 -62 -21.5 -126t-65 -118.5t-109.5 -88t-155 -33.5zM394 57q52 0 87 25.5t56 66.5t30 89.5t9 94.5q0 69 -12 126
t-37 98.5t-63.5 64t-90.5 21.5q-51 -1 -86 -27.5t-56 -68t-30 -90.5t-9 -95q0 -47 10.5 -100t33.5 -100t62 -76t96 -29zM594 922q-18 -51 -41 -78.5t-47 -37.5t-45 -10q-23 0 -41.5 7.5t-35 17.5t-33.5 17.5t-38 7.5q-19 0 -41.5 -11t-42.5 -41l-56 37q23 56 61.5 81.5
t74.5 25.5q25 0 44 -7.5t35 -17t32.5 -17t35.5 -7.5q20 0 43.5 18.5t37.5 46.5z" />
    <glyph glyph-name="Odieresis" unicode="&#xd6;" horiz-adv-x="769" 
d="M383 -16q-95 0 -161.5 32t-107.5 85.5t-60 118.5t-19 130q0 63 21.5 127.5t65 118.5t109.5 87t155 33q91 0 157 -33t108 -87.5t62.5 -118.5t20.5 -127q0 -62 -21.5 -126t-65 -118.5t-109.5 -88t-155 -33.5zM394 57q52 0 87 25.5t56 66.5t30 89.5t9 94.5q0 69 -12 126
t-37 98.5t-63.5 64t-90.5 21.5q-51 -1 -86 -27.5t-56 -68t-30 -90.5t-9 -95q0 -47 10.5 -100t33.5 -100t62 -76t96 -29zM297 797q-27 0 -47 22t-20 53q0 32 20.5 54.5t47.5 22.5q28 0 47 -22.5t19 -54.5q0 -31 -20 -53t-47 -22zM471 797q-26 0 -46 22t-20 53q0 32 20.5 54.5
t46.5 22.5q29 0 47.5 -22.5t18.5 -54.5q0 -31 -20 -53t-47 -22z" />
    <glyph glyph-name="multiply" unicode="&#xd7;" horiz-adv-x="530" 
d="M135 545l315 -315l-55 -55l-315 315zM450 491l-316 -316l-54 54l316 316z" />
    <glyph glyph-name="Oslash" unicode="&#xd8;" horiz-adv-x="769" 
d="M595 786l80 -49l-491 -836l-75 50zM383 -16q-95 0 -161.5 32t-107.5 85.5t-60 118.5t-19 130q0 63 21.5 127.5t65 118.5t109.5 87t155 33q91 0 157 -33t108 -87.5t62.5 -118.5t20.5 -127q0 -62 -21.5 -126t-65 -118.5t-109.5 -88t-155 -33.5zM394 57q52 0 87 25.5
t56 66.5t30 89.5t9 94.5q0 69 -12 126t-37 98.5t-63.5 64t-90.5 21.5q-51 -1 -86 -27.5t-56 -68t-30 -90.5t-9 -95q0 -47 10.5 -100t33.5 -100t62 -76t96 -29z" />
    <glyph glyph-name="Ugrave" unicode="&#xd9;" horiz-adv-x="760" 
d="M313 634q-22 -1 -38 -6t-24.5 -22.5t-8.5 -58.5v-275q0 -63 13.5 -103.5t36 -64t51 -33.5t58.5 -11q55 -2 94 21t60 71t21 122v262q0 27 1 52t3 38q-16 -1 -40.5 -1.5t-35.5 -1.5v77h232v-66q-22 -1 -38 -6t-24.5 -22.5t-8.5 -58.5v-250q0 -86 -21 -146t-59 -97
t-89 -53.5t-111 -16.5q-84 0 -140 24t-88.5 67t-46 99t-13.5 120v242q0 27 1.5 52t2.5 38q-16 -1 -40 -1.5t-35 -1.5v77h287v-66zM408 750l-142 75q-15 10 -26 25.5t-13 33.5t9 35q13 17 30 20.5t35 -2.5t32 -20l111 -118z" />
    <glyph glyph-name="Uacute" unicode="&#xda;" horiz-adv-x="760" 
d="M313 634q-22 -1 -38 -6t-24.5 -22.5t-8.5 -58.5v-275q0 -63 13.5 -103.5t36 -64t51 -33.5t58.5 -11q55 -2 94 21t60 71t21 122v262q0 27 1 52t3 38q-16 -1 -40.5 -1.5t-35.5 -1.5v77h232v-66q-22 -1 -38 -6t-24.5 -22.5t-8.5 -58.5v-250q0 -86 -21 -146t-59 -97
t-89 -53.5t-111 -16.5q-84 0 -140 24t-88.5 67t-46 99t-13.5 120v242q0 27 1.5 52t2.5 38q-16 -1 -40 -1.5t-35 -1.5v77h287v-66zM345 750l142 75q15 10 26 25.5t13 33.5t-9 35q-13 17 -30 20.5t-35 -2.5t-32 -20l-111 -118z" />
    <glyph glyph-name="Ucircumflex" unicode="&#xdb;" horiz-adv-x="760" 
d="M313 634q-22 -1 -38 -6t-24.5 -22.5t-8.5 -58.5v-275q0 -63 13.5 -103.5t36 -64t51 -33.5t58.5 -11q55 -2 94 21t60 71t21 122v262q0 27 1 52t3 38q-16 -1 -40.5 -1.5t-35.5 -1.5v77h232v-66q-22 -1 -38 -6t-24.5 -22.5t-8.5 -58.5v-250q0 -86 -21 -146t-59 -97
t-89 -53.5t-111 -16.5q-84 0 -140 24t-88.5 67t-46 99t-13.5 120v242q0 27 1.5 52t2.5 38q-16 -1 -40 -1.5t-35 -1.5v77h287v-66zM525 774l-139 87l-143 -85l-27 45l165 150h19l157 -150z" />
    <glyph glyph-name="Udieresis" unicode="&#xdc;" horiz-adv-x="760" 
d="M313 634q-22 -1 -38 -6t-24.5 -22.5t-8.5 -58.5v-275q0 -63 13.5 -103.5t36 -64t51 -33.5t58.5 -11q55 -2 94 21t60 71t21 122v262q0 27 1 52t3 38q-16 -1 -40.5 -1.5t-35.5 -1.5v77h232v-66q-22 -1 -38 -6t-24.5 -22.5t-8.5 -58.5v-250q0 -86 -21 -146t-59 -97
t-89 -53.5t-111 -16.5q-84 0 -140 24t-88.5 67t-46 99t-13.5 120v242q0 27 1.5 52t2.5 38q-16 -1 -40 -1.5t-35 -1.5v77h287v-66zM298 797q-27 0 -47 22t-20 53q0 32 20.5 54.5t47.5 22.5q28 0 47 -22.5t19 -54.5q0 -31 -20 -53t-47 -22zM472 797q-26 0 -46 22t-20 53
q0 32 20.5 54.5t46.5 22.5q29 0 47.5 -22.5t18.5 -54.5q0 -31 -20 -53t-47 -22z" />
    <glyph glyph-name="Yacute" unicode="&#xdd;" horiz-adv-x="667" 
d="M203 0v66q23 1 38.5 6t24 23t8.5 58v87l-184 291q-14 23 -26 51t-12 44q-16 -1 -27 -1.5t-22 -1.5v77h295v-66q-29 2 -48 -6t-23 -25.5t12 -45.5l76 -125q5 -8 15 -25.5t20.5 -37t15.5 -34.5h1q5 12 17 36t30 62l52 102q5 11 14 28.5t19.5 35t19.5 28.5q-16 -1 -41 -2
t-36 -2v77h221v-66q-35 -5 -60 -28.5t-54 -78.5q-32 -62 -65 -125t-65 -125v-28v-28.5v-28.5v-28q0 -27 -1 -52t-3 -38q17 2 43.5 2.5t36.5 0.5v-77h-292zM305 750l142 75q15 10 26 25.5t13 33.5t-9 35q-13 17 -30 20.5t-35 -2.5t-32 -20l-111 -118z" />
    <glyph glyph-name="Thorn" unicode="&#xde;" horiz-adv-x="633" 
d="M50 0v66q23 1 38.5 6t24 23t8.5 58v383q0 27 1.5 52t2.5 38q-16 -1 -40 -1.5t-35 -1.5v77h287v-66q-30 -1 -48.5 -10.5t-21.5 -53.5l60 1q88 1 154 -19t102 -66.5t34 -126.5q-1 -40 -19.5 -76.5t-54 -65t-88.5 -46t-124 -19.5q-21 -1 -35.5 -1.5t-29.5 0.5
q-1 -24 -1.5 -45t-2.5 -32q16 2 40.5 2.5t34.5 0.5v-77h-287zM303 223q83 0 121 36t38 109q0 48 -15 75t-37.5 39t-45.5 15t-39 3h-32.5h-26.5v-275q8 -1 17.5 -1.5t19.5 -0.5z" />
    <glyph glyph-name="germandbls" unicode="&#xdf;" horiz-adv-x="771" 
d="M580 -16q-43 0 -74 11t-54 28l2 -30h-76l-4 172h64q5 -46 38.5 -77.5t97.5 -31.5q22 0 43.5 13t20.5 37q0 29 -27 45t-84 38q-41 16 -78 35t-59.5 50.5t-22.5 85.5q0 50 29.5 94.5t97.5 57.5q0 57 -12.5 91t-32 50.5t-41 21.5t-40.5 5q-30 -1 -58.5 -17.5t-47 -57.5
t-18.5 -118v-324q0 -14 -1 -40.5t-3 -49.5q16 2 37.5 2.5t32.5 0.5v-76h-268v65q28 0 40.5 11t16 31.5t3.5 46.5v265l-72 -2v83h74q8 100 45.5 155t96.5 77.5t129 22.5q21 0 52.5 -4t66 -17.5t65 -41.5t49.5 -75t19 -119q0 -13 -0.5 -26.5t-2.5 -27.5q-25 2 -50 1.5
t-45.5 -5.5t-33 -16t-12.5 -31t11.5 -33t34.5 -22.5t57 -21.5q51 -17 89.5 -40.5t60 -57t21.5 -80.5q0 -52 -25 -86t-65 -51t-87 -17z" />
    <glyph glyph-name="agrave" unicode="&#xe0;" horiz-adv-x="524" 
d="M319 0q-2 14 -2.5 23.5t-1.5 22.5q-34 -34 -72 -48t-77 -14q-64 0 -100 38t-36 95q0 48 24.5 82t65 55.5t90 33t99.5 13.5v52q0 26 -6.5 47t-22 33t-43.5 11q-19 -1 -37 -8t-31 -20q8 -9 10 -19.5t2 -18.5q0 -20 -16 -41.5t-51 -20.5q-30 1 -46 21t-16 47q0 40 28.5 69.5
t76.5 46t106 16.5q88 0 136.5 -45.5t48.5 -145.5v-58t-0.5 -48t-0.5 -58q0 -14 -1 -39.5t-3 -48.5q17 2 36 2.5t29 0.5v-76h-189zM308 230q-28 -3 -53 -10t-43.5 -19t-29 -29t-10.5 -38q1 -28 18 -40t39 -12q23 0 43 10t36 26v19.5v19.5v36.5v36.5zM303 565l-121 106
q-13 13 -21 30.5t-5.5 36t18.5 32.5q16 13 33.5 12.5t33.5 -10t26 -26.5l82 -140z" />
    <glyph glyph-name="aacute" unicode="&#xe1;" horiz-adv-x="524" 
d="M319 0q-2 14 -2.5 23.5t-1.5 22.5q-34 -34 -72 -48t-77 -14q-64 0 -100 38t-36 95q0 48 24.5 82t65 55.5t90 33t99.5 13.5v52q0 26 -6.5 47t-22 33t-43.5 11q-19 -1 -37 -8t-31 -20q8 -9 10 -19.5t2 -18.5q0 -20 -16 -41.5t-51 -20.5q-30 1 -46 21t-16 47q0 40 28.5 69.5
t76.5 46t106 16.5q88 0 136.5 -45.5t48.5 -145.5v-58t-0.5 -48t-0.5 -58q0 -14 -1 -39.5t-3 -48.5q17 2 36 2.5t29 0.5v-76h-189zM308 230q-28 -3 -53 -10t-43.5 -19t-29 -29t-10.5 -38q1 -28 18 -40t39 -12q23 0 43 10t36 26v19.5v19.5v36.5v36.5zM201 565l-46 41l82 140
q11 17 26.5 26.5t33.5 10t34 -12.5q16 -14 18 -32.5t-5.5 -36t-21.5 -30.5z" />
    <glyph glyph-name="acircumflex" unicode="&#xe2;" horiz-adv-x="524" 
d="M319 0q-2 14 -2.5 23.5t-1.5 22.5q-34 -34 -72 -48t-77 -14q-64 0 -100 38t-36 95q0 48 24.5 82t65 55.5t90 33t99.5 13.5v52q0 26 -6.5 47t-22 33t-43.5 11q-19 -1 -37 -8t-31 -20q8 -9 10 -19.5t2 -18.5q0 -20 -16 -41.5t-51 -20.5q-30 1 -46 21t-16 47q0 40 28.5 69.5
t76.5 46t106 16.5q88 0 136.5 -45.5t48.5 -145.5v-58t-0.5 -48t-0.5 -58q0 -14 -1 -39.5t-3 -48.5q17 2 36 2.5t29 0.5v-76h-189zM308 230q-28 -3 -53 -10t-43.5 -19t-29 -29t-10.5 -38q1 -28 18 -40t39 -12q23 0 43 10t36 26v19.5v19.5v36.5v36.5zM379 562l-127 105h-1
l-128 -98l-42 48l171 166h10l160 -170z" />
    <glyph glyph-name="atilde" unicode="&#xe3;" horiz-adv-x="524" 
d="M319 0q-2 14 -2.5 23.5t-1.5 22.5q-34 -34 -72 -48t-77 -14q-64 0 -100 38t-36 95q0 48 24.5 82t65 55.5t90 33t99.5 13.5v52q0 26 -6.5 47t-22 33t-43.5 11q-19 -1 -37 -8t-31 -20q8 -9 10 -19.5t2 -18.5q0 -20 -16 -41.5t-51 -20.5q-30 1 -46 21t-16 47q0 40 28.5 69.5
t76.5 46t106 16.5q88 0 136.5 -45.5t48.5 -145.5v-58t-0.5 -48t-0.5 -58q0 -14 -1 -39.5t-3 -48.5q17 2 36 2.5t29 0.5v-76h-189zM308 230q-28 -3 -53 -10t-43.5 -19t-29 -29t-10.5 -38q1 -28 18 -40t39 -12q23 0 43 10t36 26v19.5v19.5v36.5v36.5zM431 724
q-21 -62 -55 -89.5t-64 -27.5q-27 0 -46.5 10t-37 19.5t-37.5 9.5q-12 0 -29.5 -8.5t-32.5 -32.5l-56 33q17 46 50 74.5t67 28.5q31 0 49 -9.5t33.5 -19t39.5 -9.5q17 0 33 13.5t29 36.5z" />
    <glyph glyph-name="adieresis" unicode="&#xe4;" horiz-adv-x="524" 
d="M319 0q-2 14 -2.5 23.5t-1.5 22.5q-34 -34 -72 -48t-77 -14q-64 0 -100 38t-36 95q0 48 24.5 82t65 55.5t90 33t99.5 13.5v52q0 26 -6.5 47t-22 33t-43.5 11q-19 -1 -37 -8t-31 -20q8 -9 10 -19.5t2 -18.5q0 -20 -16 -41.5t-51 -20.5q-30 1 -46 21t-16 47q0 40 28.5 69.5
t76.5 46t106 16.5q88 0 136.5 -45.5t48.5 -145.5v-58t-0.5 -48t-0.5 -58q0 -14 -1 -39.5t-3 -48.5q17 2 36 2.5t29 0.5v-76h-189zM308 230q-28 -3 -53 -10t-43.5 -19t-29 -29t-10.5 -38q1 -28 18 -40t39 -12q23 0 43 10t36 26v19.5v19.5v36.5v36.5zM339 600q-27 0 -46.5 22
t-19.5 53t20 53.5t47 22.5q29 0 47.5 -22.5t18.5 -53.5t-20 -53t-47 -22zM165 600q-27 0 -46.5 22t-19.5 53t20 53.5t47 22.5q29 0 47.5 -22.5t18.5 -53.5t-20 -53t-47 -22z" />
    <glyph glyph-name="aring" unicode="&#xe5;" horiz-adv-x="524" 
d="M319 0q-2 14 -2.5 23.5t-1.5 22.5q-34 -34 -72 -48t-77 -14q-64 0 -100 38t-36 95q0 48 24.5 82t65 55.5t90 33t99.5 13.5v52q0 26 -6.5 47t-22 33t-43.5 11q-19 -1 -37 -8t-31 -20q8 -9 10 -19.5t2 -18.5q0 -20 -16 -41.5t-51 -20.5q-30 1 -46 21t-16 47q0 40 28.5 69.5
t76.5 46t106 16.5q88 0 136.5 -45.5t48.5 -145.5v-58t-0.5 -48t-0.5 -58q0 -14 -1 -39.5t-3 -48.5q17 2 36 2.5t29 0.5v-76h-189zM308 230q-28 -3 -53 -10t-43.5 -19t-29 -29t-10.5 -38q1 -28 18 -40t39 -12q23 0 43 10t36 26v19.5v19.5v36.5v36.5zM253 563q-27 0 -54 13
t-45 38t-20 60q-1 35 15.5 62t44 43t58.5 16q28 0 55 -12t44.5 -36t18.5 -62q1 -37 -16 -64.5t-44.5 -42.5t-56.5 -15zM258 624q13 1 23 13t10 35q0 34 -11.5 48.5t-28.5 14.5q-13 -1 -23.5 -12t-10.5 -36q0 -31 11.5 -47t29.5 -16z" />
    <glyph glyph-name="ae" unicode="&#xe6;" horiz-adv-x="770" 
d="M167 -16q-64 0 -101 38t-37 95q0 48 24.5 82t65.5 55.5t90.5 33t99.5 13.5v54q0 26 -7 47t-22 32.5t-40 10.5q-20 -1 -39.5 -7t-32.5 -20q8 -8 10.5 -20t2.5 -20q0 -20 -16.5 -41.5t-51.5 -20.5q-29 1 -45.5 21t-16.5 47q0 37 26.5 67t73 47.5t104.5 17.5q51 0 87 -18.5
t49 -65.5q28 46 64 65t94 19q44 0 86 -24t69 -77.5t26 -145.5l-283 -6q0 -54 10 -97t36.5 -68t74.5 -25q31 0 67.5 16.5t70.5 58.5l44 -42q-35 -51 -73 -77.5t-75 -35.5t-71 -9q-56 0 -95.5 25t-65.5 59q-46 -52 -99.5 -68t-103.5 -16zM231 82q23 0 44.5 10.5t37.5 27.5
q-1 19 -2 37.5t-1.5 36.5t-0.5 36q-28 -3 -53.5 -10t-44.5 -19t-30 -29t-10 -38q1 -28 20 -40t40 -12zM453 333h145q-1 42 -10.5 66.5t-24.5 35t-31 10.5q-27 0 -43.5 -15.5t-24.5 -41t-11 -55.5z" />
    <glyph glyph-name="ccedilla" unicode="&#xe7;" horiz-adv-x="518" 
d="M277 -16q-67 0 -123 30t-89.5 87t-33.5 138q0 57 19 107t53.5 88t82 60t105.5 22q64 0 106.5 -19.5t64 -51t21.5 -66.5q0 -29 -17.5 -51.5t-49.5 -23.5q-38 -1 -53 21.5t-15 43.5q0 9 3 21.5t9 22.5q-7 15 -21 22t-28.5 9.5t-23.5 1.5q-48 -3 -79 -48t-31 -130
q0 -50 12.5 -93.5t41.5 -71.5t78 -30q42 -1 82 20t68 57l46 -45q-36 -50 -75 -76t-77.5 -35.5t-75.5 -9.5zM247 -259l-8 52q12 2 32 6.5t40 12t34 18.5t14 26q0 17 -13 22t-29 1t-26 -12l-37 16l31 127h76l-28 -79q12 7 33.5 11.5t34.5 4.5q32 -1 52.5 -17.5t20.5 -52.5
q0 -35 -24 -59t-60.5 -39.5t-75 -24.5t-67.5 -13z" />
    <glyph glyph-name="egrave" unicode="&#xe8;" horiz-adv-x="538" 
d="M278 -16q-73 0 -129 32.5t-87 92t-31 140.5q0 70 31 131t87.5 98.5t131.5 37.5q42 0 82 -11.5t72.5 -39.5t52 -76t18.5 -120l-328 -6q0 -54 13.5 -97t44.5 -68t83 -25q20 0 45.5 7t52 23.5t49.5 44.5l45 -42q-36 -51 -77 -77.5t-81.5 -35.5t-74.5 -9zM184 333h184
q-1 42 -11.5 66.5t-28.5 35.5t-42 11q-44 0 -69 -31.5t-33 -81.5zM335 565l-121 106q-13 13 -21 30.5t-5.5 36t18.5 32.5q16 13 33.5 12.5t33.5 -10t26 -26.5l82 -140z" />
    <glyph glyph-name="eacute" unicode="&#xe9;" horiz-adv-x="538" 
d="M278 -16q-73 0 -129 32.5t-87 92t-31 140.5q0 70 31 131t87.5 98.5t131.5 37.5q42 0 82 -11.5t72.5 -39.5t52 -76t18.5 -120l-328 -6q0 -54 13.5 -97t44.5 -68t83 -25q20 0 45.5 7t52 23.5t49.5 44.5l45 -42q-36 -51 -77 -77.5t-81.5 -35.5t-74.5 -9zM184 333h184
q-1 42 -11.5 66.5t-28.5 35.5t-42 11q-44 0 -69 -31.5t-33 -81.5zM233 565l-46 41l82 140q11 17 26.5 26.5t33.5 10t34 -12.5q16 -14 18 -32.5t-5.5 -36t-21.5 -30.5z" />
    <glyph glyph-name="ecircumflex" unicode="&#xea;" horiz-adv-x="538" 
d="M278 -16q-73 0 -129 32.5t-87 92t-31 140.5q0 70 31 131t87.5 98.5t131.5 37.5q42 0 82 -11.5t72.5 -39.5t52 -76t18.5 -120l-328 -6q0 -54 13.5 -97t44.5 -68t83 -25q20 0 45.5 7t52 23.5t49.5 44.5l45 -42q-36 -51 -77 -77.5t-81.5 -35.5t-74.5 -9zM184 333h184
q-1 42 -11.5 66.5t-28.5 35.5t-42 11q-44 0 -69 -31.5t-33 -81.5zM411 562l-127 105h-1l-128 -98l-42 48l171 166h10l160 -170z" />
    <glyph glyph-name="edieresis" unicode="&#xeb;" horiz-adv-x="538" 
d="M278 -16q-73 0 -129 32.5t-87 92t-31 140.5q0 70 31 131t87.5 98.5t131.5 37.5q42 0 82 -11.5t72.5 -39.5t52 -76t18.5 -120l-328 -6q0 -54 13.5 -97t44.5 -68t83 -25q20 0 45.5 7t52 23.5t49.5 44.5l45 -42q-36 -51 -77 -77.5t-81.5 -35.5t-74.5 -9zM184 333h184
q-1 42 -11.5 66.5t-28.5 35.5t-42 11q-44 0 -69 -31.5t-33 -81.5zM371 600q-27 0 -46.5 22t-19.5 53t20 53.5t47 22.5q29 0 47.5 -22.5t18.5 -53.5t-20 -53t-47 -22zM197 600q-27 0 -46.5 22t-19.5 53t20 53.5t47 22.5q29 0 47.5 -22.5t18.5 -53.5t-20 -53t-47 -22z" />
    <glyph glyph-name="igrave" unicode="&#xec;" horiz-adv-x="327" 
d="M41 65q28 0 40 11t15.5 31.5t3.5 46.5v166q0 18 1 41.5t3 45.5q-16 -1 -37.5 -1.5t-32.5 -1.5v76q46 0 78 5t50.5 12t25.5 13h54v-349q0 -14 -1 -39.5t-3 -48.5q16 2 35.5 2.5t29.5 0.5v-76h-262v65zM215 565l-121 106q-13 13 -21 30.5t-5.5 36t18.5 32.5
q16 13 33.5 12.5t33.5 -10t26 -26.5l82 -140z" />
    <glyph glyph-name="iacute" unicode="&#xed;" horiz-adv-x="327" 
d="M41 65q28 0 40 11t15.5 31.5t3.5 46.5v166q0 18 1 41.5t3 45.5q-16 -1 -37.5 -1.5t-32.5 -1.5v76q46 0 78 5t50.5 12t25.5 13h54v-349q0 -14 -1 -39.5t-3 -48.5q16 2 35.5 2.5t29.5 0.5v-76h-262v65zM113 565l-46 41l82 140q11 17 26.5 26.5t33.5 10t34 -12.5
q16 -14 18 -32.5t-5.5 -36t-21.5 -30.5z" />
    <glyph glyph-name="icircumflex" unicode="&#xee;" horiz-adv-x="327" 
d="M41 65q28 0 40 11t15.5 31.5t3.5 46.5v166q0 18 1 41.5t3 45.5q-16 -1 -37.5 -1.5t-32.5 -1.5v76q46 0 78 5t50.5 12t25.5 13h54v-349q0 -14 -1 -39.5t-3 -48.5q16 2 35.5 2.5t29.5 0.5v-76h-262v65zM160 783h10l141 -170l-43 -51l-107 100h-1l-110 -93l-42 48z" />
    <glyph glyph-name="idieresis" unicode="&#xef;" horiz-adv-x="327" 
d="M41 65q28 0 40 11t15.5 31.5t3.5 46.5v166q0 18 1 41.5t3 45.5q-16 -1 -37.5 -1.5t-32.5 -1.5v76q46 0 78 5t50.5 12t25.5 13h54v-349q0 -14 -1 -39.5t-3 -48.5q16 2 35.5 2.5t29.5 0.5v-76h-262v65zM251 600q-27 0 -46.5 22t-19.5 53t20 53.5t47 22.5q29 0 47.5 -22.5
t18.5 -53.5t-20 -53t-47 -22zM77 600q-27 0 -46.5 22t-19.5 53t20 53.5t47 22.5q29 0 47.5 -22.5t18.5 -53.5t-20 -53t-47 -22z" />
    <glyph glyph-name="eth" unicode="&#xf0;" horiz-adv-x="542" 
d="M262 -16q-65 0 -116 28t-81 82t-32 131q-1 49 12.5 97t42 87.5t72 63t101.5 23.5q17 0 42 -5.5t46 -23.5h1q-7 27 -26 55.5t-43 53.5t-45 39l-58 -71l-60 54l49 57q-19 11 -42.5 19t-49.5 13l14 73q44 -4 78 -15t57 -22l51 67l58 -52l-42 -50q61 -41 107 -104t72 -142.5
t26 -171.5q0 -78 -26 -143t-77.5 -104t-130.5 -39zM269 69q27 0 49.5 19t35.5 57t13 94q0 29 -5 60.5t-16.5 58t-30.5 43t-46 16.5q-31 0 -53 -24t-33.5 -62.5t-11.5 -83.5q0 -85 29 -131.5t69 -46.5z" />
    <glyph glyph-name="ntilde" unicode="&#xf1;" horiz-adv-x="636" 
d="M41 0v65q28 0 40 11t15.5 31.5t3.5 46.5v168q0 18 1 40.5t3 44.5q-16 -1 -37.5 -1.5t-32.5 -1.5v76q46 0 78 5t50.5 12t25.5 13h49q2 -13 2 -19t0.5 -11.5t3.5 -19.5q20 16 46 28.5t52 20t46 7.5q92 0 130.5 -52.5t38.5 -168.5v-134q0 -14 -1 -39.5t-3 -48.5q17 2 36 2.5
t29 0.5v-76h-262v65q28 0 40.5 11t16 31.5t3.5 46.5l-1 142q0 65 -18.5 96.5t-62.5 31.5q-25 0 -49.5 -11t-41.5 -26v-28.5v-28.5v-169q0 -14 -1 -39.5t-3 -48.5q16 2 35.5 2.5t29.5 0.5v-76h-262zM523 724q-21 -62 -55 -89.5t-64 -27.5q-27 0 -46.5 10t-37 19.5t-37.5 9.5
q-12 0 -29.5 -8.5t-32.5 -32.5l-56 33q17 46 50 74.5t67 28.5q31 0 49 -9.5t33.5 -19t39.5 -9.5q17 0 33 13.5t29 36.5z" />
    <glyph glyph-name="ograve" unicode="&#xf2;" horiz-adv-x="566" 
d="M286 -16q-72 0 -130 31t-91.5 88.5t-33.5 135.5q0 83 34.5 145.5t92 97t125.5 34.5q72 0 129 -31t90 -88.5t33 -137.5q0 -84 -32 -146t-88 -95.5t-129 -33.5zM290 55q40 1 60.5 28t28.5 68t8 83q0 37 -5.5 75t-17.5 69t-32.5 50t-50.5 18q-39 -1 -61.5 -28t-32 -67.5
t-9.5 -84.5q0 -51 11 -100t35.5 -80.5t65.5 -30.5zM334 565l-121 106q-13 13 -21 30.5t-5.5 36t18.5 32.5q16 13 33.5 12.5t33.5 -10t26 -26.5l82 -140z" />
    <glyph glyph-name="oacute" unicode="&#xf3;" horiz-adv-x="566" 
d="M286 -16q-72 0 -130 31t-91.5 88.5t-33.5 135.5q0 83 34.5 145.5t92 97t125.5 34.5q72 0 129 -31t90 -88.5t33 -137.5q0 -84 -32 -146t-88 -95.5t-129 -33.5zM290 55q40 1 60.5 28t28.5 68t8 83q0 37 -5.5 75t-17.5 69t-32.5 50t-50.5 18q-39 -1 -61.5 -28t-32 -67.5
t-9.5 -84.5q0 -51 11 -100t35.5 -80.5t65.5 -30.5zM232 565l-46 41l82 140q11 17 26.5 26.5t33.5 10t34 -12.5q16 -14 18 -32.5t-5.5 -36t-21.5 -30.5z" />
    <glyph glyph-name="ocircumflex" unicode="&#xf4;" horiz-adv-x="566" 
d="M286 -16q-72 0 -130 31t-91.5 88.5t-33.5 135.5q0 83 34.5 145.5t92 97t125.5 34.5q72 0 129 -31t90 -88.5t33 -137.5q0 -84 -32 -146t-88 -95.5t-129 -33.5zM290 55q40 1 60.5 28t28.5 68t8 83q0 37 -5.5 75t-17.5 69t-32.5 50t-50.5 18q-39 -1 -61.5 -28t-32 -67.5
t-9.5 -84.5q0 -51 11 -100t35.5 -80.5t65.5 -30.5zM410 562l-127 105h-1l-128 -98l-42 48l171 166h10l160 -170z" />
    <glyph glyph-name="otilde" unicode="&#xf5;" horiz-adv-x="566" 
d="M286 -16q-72 0 -130 31t-91.5 88.5t-33.5 135.5q0 83 34.5 145.5t92 97t125.5 34.5q72 0 129 -31t90 -88.5t33 -137.5q0 -84 -32 -146t-88 -95.5t-129 -33.5zM290 55q40 1 60.5 28t28.5 68t8 83q0 37 -5.5 75t-17.5 69t-32.5 50t-50.5 18q-39 -1 -61.5 -28t-32 -67.5
t-9.5 -84.5q0 -51 11 -100t35.5 -80.5t65.5 -30.5zM462 724q-21 -62 -55 -89.5t-64 -27.5q-27 0 -46.5 10t-37 19.5t-37.5 9.5q-12 0 -29.5 -8.5t-32.5 -32.5l-56 33q17 46 50 74.5t67 28.5q31 0 49 -9.5t33.5 -19t39.5 -9.5q17 0 33 13.5t29 36.5z" />
    <glyph glyph-name="odieresis" unicode="&#xf6;" horiz-adv-x="566" 
d="M286 -16q-72 0 -130 31t-91.5 88.5t-33.5 135.5q0 83 34.5 145.5t92 97t125.5 34.5q72 0 129 -31t90 -88.5t33 -137.5q0 -84 -32 -146t-88 -95.5t-129 -33.5zM290 55q40 1 60.5 28t28.5 68t8 83q0 37 -5.5 75t-17.5 69t-32.5 50t-50.5 18q-39 -1 -61.5 -28t-32 -67.5
t-9.5 -84.5q0 -51 11 -100t35.5 -80.5t65.5 -30.5zM370 600q-27 0 -46.5 22t-19.5 53t20 53.5t47 22.5q29 0 47.5 -22.5t18.5 -53.5t-20 -53t-47 -22zM196 600q-27 0 -46.5 22t-19.5 53t20 53.5t47 22.5q29 0 47.5 -22.5t18.5 -53.5t-20 -53t-47 -22z" />
    <glyph glyph-name="divide" unicode="&#xf7;" horiz-adv-x="530" 
d="M267 123q-33 0 -53.5 23t-20.5 55t22 55t51 23q31 0 51.5 -23t20.5 -55t-19.5 -55t-51.5 -23zM267 446q-33 0 -53.5 23t-20.5 55t22 55t51 23q31 0 51.5 -23t20.5 -55t-19.5 -55t-51.5 -23zM42 399h446v-78h-446v78z" />
    <glyph glyph-name="oslash" unicode="&#xf8;" horiz-adv-x="566" 
d="M116 -83l-61 47l390 610l67 -43zM286 -16q-72 0 -130 31t-91.5 88.5t-33.5 135.5q0 83 34.5 145.5t92 97t125.5 34.5q72 0 129 -31t90 -88.5t33 -137.5q0 -84 -32 -146t-88 -95.5t-129 -33.5zM290 55q40 1 60.5 28t28.5 68t8 83q0 37 -5.5 75t-17.5 69t-32.5 50t-50.5 18
q-39 -1 -61.5 -28t-32 -67.5t-9.5 -84.5q0 -51 11 -100t35.5 -80.5t65.5 -30.5z" />
    <glyph glyph-name="ugrave" unicode="&#xf9;" horiz-adv-x="618" 
d="M248 -16q-60 0 -96.5 23t-53 72t-16.5 126v115q0 18 1 41.5t2 45.5q-16 -1 -37.5 -1.5t-32.5 -1.5v76h10q62 0 98 10t46 20h55v-306q0 -65 17 -96.5t54 -31.5q26 0 52.5 14.5t43.5 33.5v196q0 18 1 41.5t3 45.5q-16 -1 -37.5 -1.5t-32.5 -1.5v76h24q47 0 83 10.5t46 19.5
h55v-349q0 -14 -1 -39.5t-3 -48.5q16 2 35.5 2.5t29.5 0.5v-76h-190q-1 13 -2.5 26t-3.5 26q-31 -26 -66.5 -47t-83.5 -21zM367 565l-121 106q-13 13 -21 30.5t-5.5 36t18.5 32.5q16 13 33.5 12.5t33.5 -10t26 -26.5l82 -140z" />
    <glyph glyph-name="uacute" unicode="&#xfa;" horiz-adv-x="618" 
d="M248 -16q-60 0 -96.5 23t-53 72t-16.5 126v115q0 18 1 41.5t2 45.5q-16 -1 -37.5 -1.5t-32.5 -1.5v76h10q62 0 98 10t46 20h55v-306q0 -65 17 -96.5t54 -31.5q26 0 52.5 14.5t43.5 33.5v196q0 18 1 41.5t3 45.5q-16 -1 -37.5 -1.5t-32.5 -1.5v76h24q47 0 83 10.5t46 19.5
h55v-349q0 -14 -1 -39.5t-3 -48.5q16 2 35.5 2.5t29.5 0.5v-76h-190q-1 13 -2.5 26t-3.5 26q-31 -26 -66.5 -47t-83.5 -21zM265 565l-46 41l82 140q11 17 26.5 26.5t33.5 10t34 -12.5q16 -14 18 -32.5t-5.5 -36t-21.5 -30.5z" />
    <glyph glyph-name="ucircumflex" unicode="&#xfb;" horiz-adv-x="618" 
d="M248 -16q-60 0 -96.5 23t-53 72t-16.5 126v115q0 18 1 41.5t2 45.5q-16 -1 -37.5 -1.5t-32.5 -1.5v76h10q62 0 98 10t46 20h55v-306q0 -65 17 -96.5t54 -31.5q26 0 52.5 14.5t43.5 33.5v196q0 18 1 41.5t3 45.5q-16 -1 -37.5 -1.5t-32.5 -1.5v76h24q47 0 83 10.5t46 19.5
h55v-349q0 -14 -1 -39.5t-3 -48.5q16 2 35.5 2.5t29.5 0.5v-76h-190q-1 13 -2.5 26t-3.5 26q-31 -26 -66.5 -47t-83.5 -21zM443 562l-127 105h-1l-128 -98l-42 48l171 166h10l160 -170z" />
    <glyph glyph-name="udieresis" unicode="&#xfc;" horiz-adv-x="618" 
d="M248 -16q-60 0 -96.5 23t-53 72t-16.5 126v115q0 18 1 41.5t2 45.5q-16 -1 -37.5 -1.5t-32.5 -1.5v76h10q62 0 98 10t46 20h55v-306q0 -65 17 -96.5t54 -31.5q26 0 52.5 14.5t43.5 33.5v196q0 18 1 41.5t3 45.5q-16 -1 -37.5 -1.5t-32.5 -1.5v76h24q47 0 83 10.5t46 19.5
h55v-349q0 -14 -1 -39.5t-3 -48.5q16 2 35.5 2.5t29.5 0.5v-76h-190q-1 13 -2.5 26t-3.5 26q-31 -26 -66.5 -47t-83.5 -21zM403 600q-27 0 -46.5 22t-19.5 53t20 53.5t47 22.5q29 0 47.5 -22.5t18.5 -53.5t-20 -53t-47 -22zM229 600q-27 0 -46.5 22t-19.5 53t20 53.5
t47 22.5q29 0 47.5 -22.5t18.5 -53.5t-20 -53t-47 -22z" />
    <glyph glyph-name="yacute" unicode="&#xfd;" horiz-adv-x="551" 
d="M148 -271q-38 0 -64.5 22.5t-26.5 59.5q0 27 17.5 47.5t45.5 21.5q22 1 37.5 -14.5t15.5 -42.5v-6t-1 -7q2 0 5 1q9 3 19.5 16.5t20.5 35.5q11 23 21.5 51.5t18.5 59.5l-158 317q-28 56 -36.5 84.5t-11.5 50.5l-46 -2v76h249v-64v0q-37 -4 -40.5 -28t8.5 -50l98 -224
q10 26 26 80.5t38 118.5q4 13 10.5 30.5t14.5 35t17 28.5l-57 -3v76h178v-64q-31 -7 -51.5 -38t-36.5 -76l-125 -357q-28 -81 -53 -133.5t-56 -77.5t-77 -25zM244 565l-46 41l82 140q11 17 26.5 26.5t33.5 10t34 -12.5q16 -14 18 -32.5t-5.5 -36t-21.5 -30.5z" />
    <glyph glyph-name="thorn" unicode="&#xfe;" horiz-adv-x="573" 
d="M3 -255v65q28 0 40.5 11t16 31.5t3.5 46.5v666q0 18 0.5 41.5t2.5 45.5q-16 -1 -37.5 -1.5t-32.5 -1.5v76q47 0 78.5 5t50 12t25.5 13h54v-293q32 26 66 40t69 14q60 0 105.5 -31t71 -88t25.5 -134q0 -80 -31 -143.5t-87 -99.5t-130 -36q-27 0 -48.5 5.5t-40.5 12.5v-96
q0 -14 -1 -39.5t-3 -48.5q17 2 36 2.5t29 0.5v-76h-262zM276 59q47 1 72.5 27.5t35.5 69.5t10 92q0 46 -11 87t-35 66.5t-63 24.5q-25 -1 -46 -12.5t-35 -31.5v-305q11 -7 31 -13t41 -5z" />
    <glyph glyph-name="ydieresis" unicode="&#xff;" horiz-adv-x="551" 
d="M148 -271q-38 0 -64.5 22.5t-26.5 59.5q0 27 17.5 47.5t45.5 21.5q22 1 37.5 -14.5t15.5 -42.5v-6t-1 -7q2 0 5 1q9 3 19.5 16.5t20.5 35.5q11 23 21.5 51.5t18.5 59.5l-158 317q-28 56 -36.5 84.5t-11.5 50.5l-46 -2v76h249v-64v0q-37 -4 -40.5 -28t8.5 -50l98 -224
q10 26 26 80.5t38 118.5q4 13 10.5 30.5t14.5 35t17 28.5l-57 -3v76h178v-64q-31 -7 -51.5 -38t-36.5 -76l-125 -357q-28 -81 -53 -133.5t-56 -77.5t-77 -25zM382 600q-27 0 -46.5 22t-19.5 53t20 53.5t47 22.5q29 0 47.5 -22.5t18.5 -53.5t-20 -53t-47 -22zM208 600
q-27 0 -46.5 22t-19.5 53t20 53.5t47 22.5q29 0 47.5 -22.5t18.5 -53.5t-20 -53t-47 -22z" />
    <glyph glyph-name="dotlessi" unicode="&#x131;" horiz-adv-x="327" 
d="M41 65q28 0 40 11t15.5 31.5t3.5 46.5v166q0 18 1 41.5t3 45.5q-16 -1 -37.5 -1.5t-32.5 -1.5v76q46 0 78 5t50.5 12t25.5 13h54v-349q0 -14 -1 -39.5t-3 -48.5q16 2 35.5 2.5t29.5 0.5v-76h-262v65z" />
    <glyph glyph-name="OE" unicode="&#x152;" horiz-adv-x="1028" 
d="M794 241q0 42 -13 60.5t-35.5 23.5t-49.5 4l-27 -1v-164q0 -27 -0.5 -51t-2.5 -37h134q30 0 57.5 13.5t45.5 45t18 85.5h66l-6 -220h-456q-36 -10 -75 -13.5t-72 -2.5q-103 2 -180 49t-119.5 126t-42.5 178q0 69 20.5 136t64 122t111.5 88t164 33q28 0 63 -4t66 -12h429
l6 -194h-66q0 55 -19 83t-47 37.5t-56 8.5l-36 -1q-21 0 -36 -5.5t-23 -24t-8 -57.5v-150h118q-1 21 -2 44.5t-2 42.5h77v-243h-66zM525 611q-26 17 -59.5 25t-70.5 8q-52 0 -90.5 -24t-63 -64t-36.5 -91t-12 -105q0 -86 24.5 -150.5t71.5 -102t114 -42.5q70 -5 122 17v529z
" />
    <glyph glyph-name="oe" unicode="&#x153;" horiz-adv-x="888" 
d="M286 -16q-72 0 -130 31t-91.5 88.5t-33.5 135.5q0 83 34.5 145.5t92 97t125.5 34.5t106.5 -21.5t69.5 -59.5h2q32 36 70.5 58.5t101.5 22.5q41 0 80.5 -12t71 -40.5t50 -76t18.5 -118.5l-330 -6q0 -48 14 -91.5t46 -71t86 -27.5q30 0 71.5 16.5t75.5 58.5l45 -42
q-36 -51 -77 -77.5t-81.5 -35.5t-74.5 -9q-52 0 -98 20.5t-75 57.5h-1q-31 -37 -74.5 -57.5t-93.5 -20.5zM290 55q33 0 53 19.5t29.5 49t12.5 63t2 62.5q-1 32 -6 66.5t-17 64.5t-32.5 48.5t-50.5 17.5q-39 -1 -61.5 -28t-32 -67.5t-9.5 -84.5q0 -51 11 -100t35.5 -80.5
t65.5 -30.5zM531 333h184q-1 42 -12 66.5t-29 35.5t-42 11q-44 0 -68.5 -31.5t-32.5 -81.5z" />
    <glyph glyph-name="uni0237" horiz-adv-x="284" 
d="M21 -271q-56 0 -82.5 25.5t-26.5 56.5q0 26 16.5 46.5t46.5 21.5q27 1 44 -16t17 -43q0 -4 -0.5 -8t-1.5 -9q6 -4 17 -4q19 0 27.5 12.5t11.5 30.5t3 32l-3 446q0 18 1 41.5t3 45.5q-16 -1 -37.5 -1.5t-32.5 -1.5v76q47 0 78.5 5t50 12t25.5 13h54v-508q0 -92 -27.5 -153
t-75.5 -90.5t-108 -29.5z" />
    <glyph glyph-name="uni02BB" unicode="&#x2bb;" horiz-adv-x="250" 
d="M142 869l39 -28q-11 -14 -24.5 -40t-23.5 -57.5t-9 -60.5q7 2 11.5 2.5t9.5 0.5q27 0 48 -16t21 -50q0 -30 -19.5 -52.5t-52.5 -22.5q-46 -1 -69 29.5t-23 75.5q0 32 10 68t30.5 74t51.5 77z" />
    <glyph glyph-name="uni02BC" unicode="&#x2bc;" horiz-adv-x="202" 
d="M50 574l-39 28q11 14 24.5 40t23.5 57.5t9 60.5q-7 -2 -11.5 -2.5t-9.5 -0.5q-27 0 -48 16t-21 50q0 30 19.5 52.5t52.5 22.5q46 1 69 -29.5t23 -75.5q0 -32 -10 -68t-30.5 -74t-51.5 -77z" />
    <glyph glyph-name="circumflex" unicode="&#x2c6;" horiz-adv-x="429" 
d="M342 562l-127 105h-1l-128 -98l-42 48l171 166h10l160 -170z" />
    <glyph glyph-name="ring" unicode="&#x2da;" horiz-adv-x="358" 
d="M180 563q-27 0 -54 13t-45 38t-20 60q-1 35 15.5 62t44 43t58.5 16q28 0 55 -12t44.5 -36t18.5 -62q1 -37 -16 -64.5t-44.5 -42.5t-56.5 -15zM185 624q13 1 23 13t10 35q0 34 -11.5 48.5t-28.5 14.5q-13 -1 -23.5 -12t-10.5 -36q0 -31 11.5 -47t29.5 -16z" />
    <glyph glyph-name="tilde" unicode="&#x2dc;" horiz-adv-x="426" 
d="M392 724q-21 -62 -55 -89.5t-64 -27.5q-27 0 -46.5 10t-37 19.5t-37.5 9.5q-12 0 -29.5 -8.5t-32.5 -32.5l-56 33q17 46 50 74.5t67 28.5q31 0 49 -9.5t33.5 -19t39.5 -9.5q17 0 33 13.5t29 36.5z" />
    <glyph glyph-name="acutecomb" 
d="M201 565l-46 41l82 140q11 17 26.5 26.5t33.5 10t34 -12.5q16 -14 18 -32.5t-5.5 -36t-21.5 -30.5z" />
    <glyph glyph-name="uni0307" 
d="M122 589q-34 0 -56 24t-22 58t23 58t54 24q32 0 53.5 -24t21.5 -58t-20 -58t-54 -24z" />
    <glyph glyph-name="uni0308" 
d="M300 600q-27 0 -46.5 22t-19.5 53t20 53.5t47 22.5q29 0 47.5 -22.5t18.5 -53.5t-20 -53t-47 -22zM126 600q-27 0 -46.5 22t-19.5 53t20 53.5t47 22.5q29 0 47.5 -22.5t18.5 -53.5t-20 -53t-47 -22z" />
    <glyph glyph-name="uni03BC" horiz-adv-x="612" 
d="M154 -271q-38 0 -54 29t-16 75v667h125v-316q0 -31 10.5 -54.5t29 -37t42.5 -13.5q18 0 37 8t38 29v384h125l-1 -358q0 -8 1 -20t6 -21.5t17 -9.5q7 0 16 4t21 14l33 -42q-16 -24 -49.5 -48t-71.5 -24q-29 0 -52 11.5t-32 37.5q-28 -31 -52 -41t-55 -10q-32 0 -61.5 20
t-52.5 69l-6 -5q20 -63 33 -105.5t20 -72t10 -51.5t3 -43q0 -28 -13.5 -52t-50.5 -24z" />
    <glyph glyph-name="uni2010" unicode="&#x2010;" horiz-adv-x="471" 
d="M51 260v108h368v-105z" />
    <glyph glyph-name="endash" unicode="&#x2013;" horiz-adv-x="563" 
d="M52 260v108h459v-105z" />
    <glyph glyph-name="emdash" unicode="&#x2014;" horiz-adv-x="845" 
d="M52 260v108h741v-105z" />
    <glyph glyph-name="quoteleft" unicode="&#x2018;" horiz-adv-x="223" 
d="M125 760l39 -28q-11 -14 -24.5 -40t-23.5 -57.5t-9 -60.5q7 2 11.5 2.5t9.5 0.5q27 0 48 -16t21 -50q0 -30 -19.5 -52.5t-52.5 -22.5q-46 -1 -69 29.5t-23 75.5q0 32 10 68t30.5 74t51.5 77z" />
    <glyph glyph-name="quoteright" unicode="&#x2019;" horiz-adv-x="210" 
d="M93 436l-39 28q11 14 24.5 40t23.5 57.5t9 60.5q-7 -2 -11.5 -2.5t-9.5 -0.5q-27 0 -48 16t-21 50q0 30 19.5 52.5t52.5 22.5q46 1 69 -29.5t23 -75.5q0 -32 -10 -68t-30.5 -74t-51.5 -77z" />
    <glyph glyph-name="quotesinglbase" unicode="&#x201a;" horiz-adv-x="250" 
d="M116 -187l-39 28q11 14 24.5 40t23.5 57.5t9 60.5q-7 -2 -11.5 -2.5t-9.5 -0.5q-27 0 -48 16t-21 50q0 30 19.5 52.5t52.5 22.5q46 1 69 -29.5t23 -75.5q0 -32 -10 -68t-30.5 -74t-51.5 -77z" />
    <glyph glyph-name="quotedblleft" unicode="&#x201c;" horiz-adv-x="423" 
d="M125 760l39 -28q-11 -14 -24.5 -40t-23.5 -57.5t-9 -60.5q7 2 11.5 2.5t9.5 0.5q27 0 48 -16t21 -50q0 -30 -19.5 -52.5t-52.5 -22.5q-46 -1 -69 29.5t-23 75.5q0 32 10 68t30.5 74t51.5 77zM325 760l39 -28q-11 -14 -24.5 -40t-23.5 -57.5t-9 -60.5q7 2 11.5 2.5
t9.5 0.5q27 0 48 -16t21 -50q0 -30 -19.5 -52.5t-52.5 -22.5q-46 -1 -69 29.5t-23 75.5q0 32 10 68t30.5 74t51.5 77z" />
    <glyph glyph-name="quotedblright" unicode="&#x201d;" horiz-adv-x="411" 
d="M93 436l-39 28q11 14 24.5 40t23.5 57.5t9 60.5q-7 -2 -11.5 -2.5t-9.5 -0.5q-27 0 -48 16t-21 50q0 30 19.5 52.5t52.5 22.5q46 1 69 -29.5t23 -75.5q0 -32 -10 -68t-30.5 -74t-51.5 -77zM293 436l-39 28q11 14 24.5 40t23.5 57.5t9 60.5q-7 -2 -11.5 -2.5t-9.5 -0.5
q-27 0 -48 16t-21 50q0 30 19.5 52.5t52.5 22.5q46 1 69 -29.5t23 -75.5q0 -32 -10 -68t-30.5 -74t-51.5 -77z" />
    <glyph glyph-name="quotedblbase" unicode="&#x201e;" horiz-adv-x="450" 
d="M116 -187l-39 28q11 14 24.5 40t23.5 57.5t9 60.5q-7 -2 -11.5 -2.5t-9.5 -0.5q-27 0 -48 16t-21 50q0 30 19.5 52.5t52.5 22.5q46 1 69 -29.5t23 -75.5q0 -32 -10 -68t-30.5 -74t-51.5 -77zM316 -187l-39 28q11 14 24.5 40t23.5 57.5t9 60.5q-7 -2 -11.5 -2.5t-9.5 -0.5
q-27 0 -48 16t-21 50q0 30 19.5 52.5t52.5 22.5q46 1 69 -29.5t23 -75.5q0 -32 -10 -68t-30.5 -74t-51.5 -77z" />
    <glyph glyph-name="dagger" unicode="&#x2020;" horiz-adv-x="520" 
d="M229 -271q-5 86 -10.5 181.5t-13 191t-18.5 178.5q9 23 17 63.5t16 75.5q-54 -15 -85 -19t-36 -4q-18 0 -34 5t-26.5 17.5t-10.5 35.5t10 35t26 16.5t34 4.5q32 0 64 -8.5t64 -14.5q-7 40 -17 88t-14 88q-2 20 4 41t21 35.5t41 14.5t40.5 -14.5t20 -35.5t3.5 -41
q-4 -40 -13.5 -88.5t-17.5 -88.5q32 7 64.5 15.5t63.5 8.5q18 0 34 -4.5t26 -16.5t10 -35t-10 -35.5t-26 -17.5t-35 -5q-40 4 -68 11t-53 12q8 -35 16 -76t17 -63q-11 -84 -18.5 -178.5t-13 -190t-10.5 -182.5h-62z" />
    <glyph glyph-name="daggerdbl" unicode="&#x2021;" horiz-adv-x="544" 
d="M271 -271q-26 0 -40.5 14.5t-19.5 36t-3 41.5q2 27 6 59t9.5 64t9.5 58q-31 -6 -64 -14.5t-59 -8.5q-18 0 -34 5t-26 17t-10 34q0 23 10.5 35.5t26.5 17.5t34 5q36 0 68.5 -9.5t57.5 -14.5q-6 29 -12.5 58t-12.5 58t-13 58q8 44 16.5 87t16.5 86q-52 -15 -84 -19t-37 -4
q-18 0 -34 4.5t-26.5 17t-10.5 35.5t10 35.5t26 17t34 4.5q32 0 64 -8.5t64 -15.5q-4 27 -10.5 59t-12 64t-7.5 59q-2 20 4 41.5t21 36t40 14.5q27 0 41.5 -14.5t19.5 -36t3 -41.5q-2 -27 -7.5 -59t-11.5 -64t-11 -59q32 7 64.5 15.5t63.5 8.5q18 0 33.5 -4.5t25.5 -17
t10 -35.5t-10 -35.5t-26 -17t-34 -4.5q-41 4 -69 11.5t-53 11.5l16 -86t15 -87q-9 -43 -18 -86.5t-18 -87.5q38 9 58 14t34.5 7.5t34.5 2.5q18 0 34 -5t26 -17.5t10 -35.5q0 -22 -10 -34t-25.5 -17t-33.5 -5q-26 0 -56.5 8t-66.5 15q5 -26 10 -58t9 -64t6 -59
q2 -20 -4 -41.5t-21 -36t-41 -14.5z" />
    <glyph glyph-name="bullet" unicode="&#x2022;" horiz-adv-x="382" 
d="M190 206q-44 0 -80 21t-57.5 56.5t-21.5 79.5t21.5 79.5t57.5 56.5t80 21t80.5 -21t58.5 -56.5t22 -79.5t-22 -79.5t-58.5 -56.5t-80.5 -21z" />
    <glyph glyph-name="ellipsis" unicode="&#x2026;" horiz-adv-x="773" 
d="M118 -16q-33 0 -53.5 23t-20.5 55t22 55t51 23q31 0 51.5 -23t20.5 -55t-19.5 -55t-51.5 -23zM388 -16q-33 0 -53.5 23t-20.5 55t22 55t51 23q31 0 51.5 -23t20.5 -55t-19.5 -55t-51.5 -23zM658 -16q-33 0 -53.5 23t-20.5 55t22 55t51 23q31 0 51.5 -23t20.5 -55
t-19.5 -55t-51.5 -23z" />
    <glyph glyph-name="perthousand" unicode="&#x2030;" horiz-adv-x="1316" 
d="M1092 -16q-61 0 -103.5 27.5t-64.5 71.5t-22 93q0 47 22 92.5t64 75.5t101 31q62 2 104 -26.5t64 -73t22 -90.5q0 -52 -25 -98t-67 -74.5t-95 -28.5zM1092 64q19 0 31.5 10t19.5 26t10 34.5t3 35.5q0 20 -3 42t-10.5 41.5t-20.5 32t-32 12.5q-25 0 -39.5 -19t-20 -44
t-5.5 -44t3 -41t10.5 -41.5t20.5 -32t33 -12.5zM196 -17l-65 61l570 672l73 -66zM233 325q-61 0 -103.5 27.5t-64 71.5t-21.5 93q0 47 22 92t64 75.5t101 31.5q62 1 104 -27.5t63.5 -72.5t21.5 -90q0 -53 -25 -99t-67 -74t-95 -28zM234 405q25 0 38.5 16.5t19.5 41.5t6 48
q0 20 -3 42t-10.5 41.5t-20.5 32t-32 12.5t-31.5 -11t-20 -28t-10.5 -35.5t-3 -32.5q0 -19 3 -41t10 -41.5t20 -32t34 -12.5zM680 -16q-61 0 -103.5 27.5t-64 71.5t-21.5 93q0 47 22 92t64 75.5t101 31.5q61 1 103 -27.5t64 -72.5t22 -90q0 -52 -25 -98t-67 -74.5t-95 -28.5
zM681 64q18 0 30.5 10t20 26t10.5 34.5t3 35.5q0 20 -3 42t-10.5 41.5t-20.5 32t-32 12.5q-25 0 -39.5 -19t-20.5 -44t-6 -44t3 -41t10.5 -41.5t20.5 -32t34 -12.5z" />
    <glyph glyph-name="minute" unicode="&#x2032;" horiz-adv-x="289" 
d="M104 480l-59 27l88 297l111 -47z" />
    <glyph glyph-name="second" unicode="&#x2033;" horiz-adv-x="459" 
d="M104 480l-59 27l88 297l111 -47zM274 480l-59 27l88 297l111 -47z" />
    <glyph glyph-name="guilsinglleft" unicode="&#x2039;" horiz-adv-x="378" 
d="M290 -16l55 55l-182 235v1l182 223l-57 55l-269 -269v-22z" />
    <glyph glyph-name="guilsinglright" unicode="&#x203a;" horiz-adv-x="378" 
d="M88 -16l-55 55l182 235v1l-182 223l57 55l269 -269v-22z" />
    <glyph glyph-name="fraction" unicode="&#x2044;" horiz-adv-x="467" 
d="M43 -16l-65 48l443 684l68 -53z" />
    <glyph glyph-name="uni2052" unicode="&#x2052;" horiz-adv-x="773" 
d="M135 -17l-65 61l570 672l73 -66zM614 0q-32 0 -51 19.5t-27 47t-8 50.5t7.5 46t25.5 39t49 16q34 0 52.5 -19.5t25.5 -47t7 -50.5q0 -18 -7 -41.5t-24.5 -41.5t-49.5 -18zM179 481q-34 0 -52.5 19.5t-25.5 47t-7 50.5q0 18 7 42t25.5 41.5t50.5 17.5q33 0 51 -19.5
t25.5 -46.5t7.5 -51q0 -22 -7.5 -45.5t-25 -39.5t-49.5 -16z" />
    <glyph glyph-name="uni2074" unicode="&#x2074;" horiz-adv-x="417" 
d="M147 301v38q20 1 30.5 8.5t10.5 41.5v13l-151 1v58l213 255h35v-259l59 -1v-55h-59q0 -17 -0.5 -32t-1.5 -25q9 1 22.5 1h20.5v-44h-179zM190 458l4 120l-90 -118z" />
    <glyph glyph-name="Euro" unicode="&#x20ac;" horiz-adv-x="809" 
d="M470 -16q-83 0 -149 32t-110.5 88t-64.5 128l-104 -1l18 79l73 -1q-1 15 -1 30v29h-90l18 78h85q18 72 60 133.5t110 99t162 37.5q39 0 83 -11.5t84 -37.5l2 42h77l-24 -219h-66q0 49 -16.5 83t-48 52.5t-78.5 18.5q-55 0 -96.5 -27t-68.5 -72t-39 -99l335 -1l-47 -75
l-298 -1q-1 -15 -1 -30t3 -30l283 -1l-50 -75l-220 -1q22 -82 74.5 -124.5t128.5 -42.5q63 0 125 32.5t104 90.5l48 -44q-49 -67 -103 -101.5t-105.5 -46.5t-92.5 -12z" />
    <glyph glyph-name="trademark" unicode="&#x2122;" horiz-adv-x="1110" 
d="M706 281l-86 195q-5 11 -13 32t-15.5 46.5t-13.5 48.5q0 -30 1 -58t0 -55l1 -97q0 -16 -1.5 -30.5t-2.5 -22.5l45 2v-55h-143v48q20 1 30 8.5t10 42.5q2 81 3 130.5t2 77t1.5 39t1.5 15.5l-45 -2v54h153l98 -229q11 -27 18 -48.5t14 -43.5q4 12 9.5 30t11.5 34t9 23
l90 234h158v-47q-20 -1 -32 -8.5t-11 -42.5l8 -209q0 -16 -0.5 -30.5t-2.5 -22.5l45 2v-55h-180v48q20 1 31.5 8.5t10.5 42.5l-5 116q0 7 -1 24.5t-1.5 38.5t-1.5 39l-118 -323h-78zM167 287v48q20 2 31 9t11 43v259h-32q-34 0 -53.5 -23t-19.5 -71h-39l3 148h386l3 -148
h-39q0 48 -19.5 71.5t-53.5 22.5h-33v-252q0 -16 -0.5 -31t-1.5 -23l47 2v-55h-190z" />
    <glyph glyph-name="minus" unicode="&#x2212;" horiz-adv-x="530" 
d="M42 399h446v-78h-446v78z" />
    <glyph glyph-name="uni2215" unicode="&#x2215;" horiz-adv-x="375" 
d="M48 -49l-72 36l317 751l77 -41z" />
    <glyph glyph-name="colon.case" horiz-adv-x="250" 
d="M121 94q-33 0 -53.5 23t-20.5 55t22 55t51 23q31 0 51.5 -23t20.5 -55t-19.5 -55t-51.5 -23zM121 497q-33 0 -53.5 23t-20.5 55t22 55t51 23q31 0 51.5 -23t20.5 -55t-19.5 -55t-51.5 -23z" />
    <glyph glyph-name="periodcentered.loclCAT" horiz-adv-x="226" 
d="M115 264q-33 0 -53.5 23t-20.5 55t22 55t51 23q31 0 51.5 -23t20.5 -55t-19.5 -55t-51.5 -23z" />
    <glyph glyph-name="uni0308.case" 
d="M110 797q-27 0 -47 22t-20 53q0 32 20.5 54.5t47.5 22.5q28 0 47 -22.5t19 -54.5q0 -31 -20 -53t-47 -22zM284 797q-26 0 -46 22t-20 53q0 32 20.5 54.5t46.5 22.5q29 0 47.5 -22.5t18.5 -54.5q0 -31 -20 -53t-47 -22z" />
    <glyph glyph-name="gravecomb.case" 
d="M215 750l-142 75q-15 10 -26 25.5t-13 33.5t9 35q13 17 30 20.5t35 -2.5t32 -20l111 -118z" />
    <glyph glyph-name="acutecomb.case" 
d="M63 750l142 75q15 10 26 25.5t13 33.5t-9 35q-13 17 -30 20.5t-35 -2.5t-32 -20l-111 -118z" />
    <glyph glyph-name="uni030A.case" 
d="M178 751q-32 0 -62 13t-50 39.5t-22 68.5q-1 40 18.5 70t50.5 47t64 17q31 0 61 -13t50.5 -39.5t22.5 -68.5q1 -42 -19 -72t-51 -46t-63 -16zM184 805q17 1 27.5 16t10.5 46q0 44 -13.5 66t-35.5 20q-18 -1 -29 -19t-11 -49q0 -40 14.5 -60.5t36.5 -19.5z" />
    <glyph glyph-name="tildecomb.case" 
d="M466 922q-18 -51 -41 -78.5t-47 -37.5t-45 -10q-23 0 -41.5 7.5t-35 17.5t-33.5 17.5t-38 7.5q-19 0 -41.5 -11t-42.5 -41l-56 37q23 56 61.5 81.5t74.5 25.5q25 0 44 -7.5t35 -17t32.5 -17t35.5 -7.5q20 0 43.5 18.5t37.5 46.5z" />
    <glyph glyph-name="uni0327.case" 
d="M53 -275l-8 55q12 2 32 8t40 15.5t34 22.5t14 28q0 19 -13 23t-29 -0.5t-26 -12.5l-41 15l30 131h81l-28 -77q12 6 33.5 11t34.5 4q32 -1 54 -19.5t22 -53.5t-24.5 -61.5t-61.5 -44.5t-76 -29t-68 -15z" />
    <glyph glyph-name="uni0302.i" 
d="M216 783h10l141 -170l-43 -51l-107 100h-1l-110 -93l-42 48z" />
    <glyph glyph-name="uni0302.case.i" 
d="M394 774l-139 87l-143 -85l-27 45l165 150h19l157 -150z" />
    </font>
</defs>
</svg>
