<?xml version="1.0" standalone="no"?>
<!DOCTYPE svg PUBLIC "-//W3C//DTD SVG 1.1//EN" "http://www.w3.org/Graphics/SVG/1.1/DTD/svg11.dtd" >
<svg xmlns="http://www.w3.org/2000/svg" xmlns:xlink="http://www.w3.org/1999/xlink" version="1.1">
<metadata>
Created by FontForge 20170731 at Mon Nov  2 12:38:03 2020
 By Aleksey,,,
Copyright 2011 The Lora Project Authors (https://github.com/cyrealtype/Lora-Cyrillic), with Reserved Font Name "Lora".
</metadata>
<defs>
<font id="Lora-BoldItalic" horiz-adv-x="530" >
  <font-face 
    font-family="Lora"
    font-weight="700"
    font-style="italic"
    font-stretch="normal"
    units-per-em="1000"
    panose-1="0 0 0 0 0 0 0 0 0 0"
    ascent="800"
    descent="-200"
    x-height="511"
    cap-height="700"
    bbox="-115 -275 1261.4 1006"
    underline-thickness="50"
    underline-position="-175"
    slope="-3"
    unicode-range="U+000D-2215"
  />
<missing-glyph horiz-adv-x="542" 
d="M55 500h453l-26 -500h-453zM165 72h189l19 356h-189z" />
    <glyph glyph-name="fi" unicode="fi" horiz-adv-x="683" 
d="M-20 -271q-46 0 -70.5 19.5t-24.5 52.5q0 12 6 26.5t19 25.5t35 11q21 0 36.5 -14.5t15.5 -37.5q0 -6 -1 -10q2 -1 5.5 -1.5t7.5 -0.5q17 0 28 18t17.5 47t10 62t6.5 62q4 43 8 100.5t8.5 120t9 119.5t7.5 99l-80 -1l9 73h80q17 131 84 195.5t185 64.5q28 0 63 -6.5
t67.5 -21t54 -39t21.5 -60.5q0 -12 -5.5 -27.5t-19 -27t-37.5 -11.5q-25 0 -43.5 16.5t-18.5 42.5q0 15 5 32q-16 17 -34.5 26.5t-54.5 9.5q-48 0 -77 -19.5t-43.5 -62t-22.5 -112.5h104l-6 -69l-102 -2q-3 -43 -7 -100.5t-9 -120t-10 -120t-10 -99.5q-9 -77 -34 -136
t-70 -91.5t-113 -32.5zM523 -11q-55 0 -75.5 30t-20.5 83q0 29 5 69t11 82t11 78.5t5 60.5q0 17 -4.5 21.5t-10.5 4.5q-11 0 -23 -17t-25 -62l-54 16q4 21 16 48t31.5 51.5t46 40.5t60.5 16q52 0 72 -31.5t20 -84.5q0 -24 -4.5 -65t-11 -86t-11 -82t-4.5 -54q0 -16 5 -21
t10 -5q11 0 23.5 17t25.5 62l54 -16q-4 -21 -15.5 -48t-30.5 -51.5t-45.5 -40.5t-60.5 -16z" />
    <glyph glyph-name="fl" unicode="fl" horiz-adv-x="658" 
d="M-20 -271q-46 0 -70.5 19.5t-24.5 52.5q0 25 15.5 44t44.5 19q21 0 36.5 -14.5t15.5 -37.5v-4.5t-1 -5.5q6 -2 13 -2q17 0 28 18t17.5 47t10 62t6.5 62q4 43 8 100.5t8.5 120t9 119.5t7.5 99l-80 -1l9 73h80q17 129 75.5 194.5t172.5 65.5q43 0 78 -11t63 -11
q12 0 22.5 3.5t19.5 13.5h55q-20 -171 -33 -285.5t-21 -185.5t-11 -110.5t-3 -62.5q0 -18 5 -23.5t10 -5.5q11 0 23 17t25 62l54 -16q-6 -25 -17 -52.5t-29.5 -51t-44.5 -38t-62 -14.5q-37 0 -64 22t-27 74q0 45 4 101t10 118t13.5 126.5t14.5 128.5q2 19 6.5 50t6.5 53
q-22 17 -47.5 24.5t-48.5 7.5q-42 0 -67 -19.5t-38 -62t-21 -112.5h104l-6 -69l-102 -2q-3 -43 -7 -100.5t-9 -120t-10 -120t-10 -99.5q-9 -77 -34 -136t-70 -91.5t-113 -32.5z" />
    <glyph glyph-name=".notdef" horiz-adv-x="542" 
d="M55 500h453l-26 -500h-453zM165 72h189l19 356h-189z" />
    <glyph glyph-name="uni0000" horiz-adv-x="263" 
 />
    <glyph glyph-name="uni0000" horiz-adv-x="263" 
 />
    <glyph glyph-name="nonmarkingreturn" horiz-adv-x="333" 
 />
    <glyph glyph-name="CR" unicode="&#xd;" horiz-adv-x="263" 
 />
    <glyph glyph-name="space" unicode=" " horiz-adv-x="263" 
 />
    <glyph glyph-name="exclam" unicode="!" horiz-adv-x="255" 
d="M149 716q27 0 42.5 -14t21 -34.5t2.5 -42.5l-58 -412h-67l-16 412q-1 32 18.5 61.5t56.5 29.5zM119 140q32 0 50.5 -23t17.5 -55q-2 -32 -25 -55t-52 -23t-48.5 23t-18.5 55q2 32 25 55t51 23z" />
    <glyph glyph-name="quotedbl" unicode="&#x22;" horiz-adv-x="324" 
d="M307 716l-20 -225h-79l4 225h95zM164 716l-20 -225h-79l4 225h95z" />
    <glyph glyph-name="numbersign" unicode="#" horiz-adv-x="842" 
d="M715 716l-52 -189h167v-1l-25 -85h-166l-57 -200h167l-26 -86h-164l-48 -171h-104l49 171h-170l-48 -171h-104l50 171h-166l25 86h164l60 200h-168l26 86h166l54 189h98l-53 -189h173l55 189h97zM540 441h-173l-58 -200h170z" />
    <glyph glyph-name="dollar" unicode="$" horiz-adv-x="570" 
d="M230 -154l6 141q-31 5 -63 16.5t-61 29.5l1 -42h-77l12 234h65q9 -84 53 -126t114 -42q53 0 83.5 28t32.5 71q2 34 -17.5 56t-52 38t-70.5 31q-42 18 -79.5 40t-66.5 51t-44.5 66.5t-12.5 86.5q2 30 12.5 62t34 60t63.5 47t100 22l7 121h93l-8 -131q22 -6 42 -15t38 -23
l-1 41h77l-12 -233h-66q-6 56 -23.5 94.5t-48.5 58.5t-78 19q-28 0 -49.5 -12.5t-34.5 -32.5t-14 -45q-2 -31 11 -53t45 -42.5t88 -46.5q36 -17 73 -37t67 -46.5t47.5 -62t14.5 -84.5q-3 -52 -27.5 -94t-68.5 -69t-106 -36l-8 -141h-91z" />
    <glyph glyph-name="percent" unicode="%" horiz-adv-x="885" 
d="M167 -17l-62 61l605 672l70 -66zM223 325q-61 0 -101.5 27.5t-60 71.5t-17.5 93q3 47 27 92t67 75.5t103 31.5q61 1 101 -27.5t59.5 -72.5t16.5 -90q-2 -53 -29 -99t-70 -74t-96 -28zM227 393q21 0 34.5 14t21.5 35t11.5 43.5t3.5 39.5q0 22 -3 44t-10 40t-18.5 28.5
t-29.5 10.5q-23 0 -37.5 -14.5t-22 -36.5t-10.5 -43.5t-3 -35.5q0 -19 3 -40.5t10 -41t19 -31.5t31 -12zM651 -16q-61 0 -101.5 27.5t-59.5 71.5t-16 93q3 47 26.5 92.5t66.5 75.5t102 31q62 2 102.5 -26.5t60 -73t16.5 -90.5q-3 -52 -29 -98t-69.5 -74.5t-98.5 -28.5z
M656 52q28 0 43.5 23.5t22 55t6.5 54.5q0 22 -3 43.5t-10 39.5t-19 28.5t-29 10.5q-24 0 -38.5 -14.5t-22 -36.5t-10.5 -43.5t-3 -35.5q0 -19 3 -40.5t10 -41t19 -31.5t31 -12z" />
    <glyph glyph-name="ampersand" unicode="&#x26;" horiz-adv-x="685" 
d="M287 -16q-74 0 -134 21.5t-95.5 66t-35.5 113.5q0 49 24 89.5t65.5 69.5t95.5 42q-61 12 -97 47.5t-36 84.5q0 64 32.5 108.5t86.5 67.5t118 22q61 0 105.5 -17t68.5 -45.5t24 -64.5q0 -28 -18 -49t-48 -21q-28 0 -44.5 16t-18.5 44q0 8 3 23t10 22q-12 12 -29 18t-42 6
t-47.5 -14.5t-37.5 -40.5t-17 -63q-1 -19 4.5 -39.5t19 -38t37 -28.5t59.5 -11q8 0 14.5 0.5t19.5 0.5l-4 -70l-35 1q-35 1 -63.5 -9t-49.5 -29t-33 -45t-14 -58q-3 -49 15.5 -82.5t52 -51t72.5 -17.5q65 0 105 25.5t61 66t27 85.5q-13 0 -31.5 -4t-40.5 -13.5t-46 -27.5
l-34 36q29 43 53.5 64.5t54 29.5t72.5 8q32 0 63 7.5t65 40.5l38 -33q-17 -30 -34 -51.5t-40 -34.5t-59 -18q-4 -40 -20 -84t-48.5 -81.5t-85 -61t-128.5 -23.5z" />
    <glyph glyph-name="quotesingle" unicode="'" horiz-adv-x="188" 
d="M171 716l-21 -225h-84l3 225h102z" />
    <glyph glyph-name="parenleft" unicode="(" horiz-adv-x="296" 
d="M219 -271q-35 34 -72 86.5t-67 119.5t-47 144t-13 160t29.5 162t62.5 148t79.5 123t81.5 88l34 -35q-33 -41 -58 -94t-42.5 -110t-29 -111.5t-18 -99t-7.5 -71.5q-2 -27 -0.5 -70.5t7.5 -96t18.5 -108t31.5 -107.5t48 -93z" />
    <glyph glyph-name="parenright" unicode=")" horiz-adv-x="296" 
d="M70 760q35 -34 72 -86.5t67 -119.5t47 -144t13 -160t-29.5 -162t-62.5 -148t-79.5 -123t-81.5 -88l-34 35q33 41 58 94t42.5 110t29 111.5t18 99t7.5 71.5q2 27 0.5 70.5t-7.5 96t-18.5 108t-31.5 107.5t-48 93z" />
    <glyph glyph-name="asterisk" unicode="*" horiz-adv-x="512" 
d="M282 716q22 0 32 -10.5t12.5 -27t1.5 -33.5q-1 -21 -8.5 -52t-24.5 -75q39 27 67.5 41.5t47.5 21.5q17 6 34 7.5t30.5 -5.5t19.5 -27q8 -31 -11.5 -46.5t-44.5 -23.5q-21 -6 -52 -10.5t-78 -4.5q36 -27 57.5 -48t32.5 -38q10 -14 16 -30t3 -31t-21 -28q-27 -19 -47 -6
t-34 33q-11 18 -23.5 47t-23.5 73q-17 -44 -31.5 -72t-28.5 -45q-16 -21 -37.5 -35t-47.5 5q-16 13 -18 28t5 30t17 29q14 17 38.5 39.5t63.5 48.5q-46 0 -77 4.5t-51 10.5q-16 6 -30 15t-20 23.5t1 34.5q12 30 36.5 30t49.5 -8q20 -7 46.5 -21.5t62.5 -41.5
q-13 44 -16.5 75t-2.5 52q1 17 5 33.5t15.5 27t33.5 10.5z" />
    <glyph glyph-name="plus" unicode="../%2b.html" 
d="M50 399h446l-4 -78h-446zM322 583l-24 -446h-78l24 446h78z" />
    <glyph glyph-name="comma" unicode="," horiz-adv-x="249" 
d="M103 137q47 1 67.5 -29.5t18.5 -75.5q-1 -32 -13 -68t-34.5 -74t-55.5 -77l-37 28q11 14 26 40t27 57.5t12 60.5q-7 -2 -11.5 -2.5t-9.5 -0.5q-27 0 -47 16t-19 50q2 30 23 52.5t53 22.5z" />
    <glyph glyph-name="hyphen" unicode="-" horiz-adv-x="473" 
d="M424 366l-6 -101l-368 -4l6 105h368z" />
    <glyph glyph-name="period" unicode="." horiz-adv-x="233" 
d="M105 140q31 0 50.5 -23t17.5 -55q-1 -32 -22 -55t-53 -23q-33 0 -52 23t-18 55q2 32 25 55t52 23z" />
    <glyph glyph-name="slash" unicode="/" horiz-adv-x="665" 
d="M592 755l85 -58l-626 -968l-71 51z" />
    <glyph glyph-name="zero" unicode="0" horiz-adv-x="625" 
d="M339 716q73 0 122.5 -33t79 -86.5t41 -117.5t8.5 -127q-3 -62 -23 -127t-57 -119.5t-90.5 -88t-123.5 -33.5q-76 0 -127 32.5t-80 86t-40 117.5t-8 127t24 128t58.5 119.5t91.5 88t124 33.5zM333 648q-36 0 -61.5 -22.5t-42.5 -61.5t-26 -89.5t-12 -106.5
q-2 -42 -1.5 -86t6 -85t18.5 -74t35.5 -52t56.5 -19q36 0 60.5 22.5t39.5 62t23 89.5t11 105q3 61 1.5 117.5t-12.5 101.5t-34 71.5t-62 26.5z" />
    <glyph glyph-name="one" unicode="1" horiz-adv-x="397" 
d="M313 716l-29 -552q-1 -27 -4 -52t-5 -38q16 2 40.5 2.5t34.5 0.5l-4 -77h-284l3 66q23 1 39 6t25.5 23t11.5 58l21 401l-113 -65l-32 60l235 167h61z" />
    <glyph glyph-name="two" unicode="2" horiz-adv-x="522" 
d="M275 716q40 0 79.5 -10t71 -32t49.5 -58t15 -89q-1 -25 -12 -52.5t-36.5 -60t-71 -74.5t-116.5 -98q-57 -45 -85 -82t-34 -57l196 -5q22 -1 39.5 3.5t28 19t11.5 42.5h63l-16 -163h-438q3 52 18 93t39.5 74t53.5 61t59 55q77 68 111.5 123t37.5 109q2 32 -5.5 62
t-28 49.5t-58.5 18.5q-27 0 -49 -12.5t-33 -29.5q10 -11 14 -27t3 -27q-1 -19 -18 -41t-55 -21q-31 1 -45.5 22.5t-13.5 50.5q1 23 16.5 49.5t44.5 51t70.5 40t94.5 15.5z" />
    <glyph glyph-name="three" unicode="3" horiz-adv-x="546" 
d="M229 -16q-75 0 -121.5 22.5t-67.5 56.5t-19 68q1 30 20.5 52.5t50.5 23.5q25 1 38.5 -10t19 -26t4.5 -28q-1 -10 -5.5 -22.5t-12.5 -23.5q9 -19 34.5 -29.5t53.5 -10.5q62 0 96 38t37 94q2 26 -4 52t-21.5 47.5t-43.5 34.5t-71 12q-7 0 -25 -1t-27 -2l3 72q8 -1 15 -1h15
q44 0 76 16t50 44t20 65q3 35 -5 61.5t-27.5 41.5t-54.5 15q-18 0 -34 -6t-28.5 -15.5t-18.5 -20.5q9 -11 11.5 -25.5t1.5 -23.5q0 -12 -7.5 -27.5t-22.5 -26.5t-40 -10q-31 1 -46 22t-14 50q2 30 27 66t73 61.5t118 25.5q62 0 111 -17t76.5 -56t23.5 -104q-1 -26 -17 -58.5
t-49.5 -59.5t-89.5 -39q95 -18 136 -70t38 -116q-3 -68 -39.5 -115.5t-97.5 -72t-140 -24.5z" />
    <glyph glyph-name="four" unicode="4" horiz-adv-x="533" 
d="M180 0l3 66q23 1 39 6t25.5 23t11.5 58l1 28h-260l5 94l363 441h61l-24 -445h98l-5 -90h-98l-2 -50q-1 -19 -2.5 -31.5t-4.5 -25.5l75 3l-4 -77h-282zM265 273l13 221h-1l-180 -220z" />
    <glyph glyph-name="five" unicode="5" horiz-adv-x="529" 
d="M484 765l-16 -162l-304 -6l-19 -178q23 10 58 17t65 7q62 0 106.5 -18t72.5 -49.5t41 -72t11 -85.5q-4 -77 -44.5 -129.5t-100.5 -78.5t-125 -26t-110.5 21t-68 52.5t-21.5 63.5q2 29 21 52t50 24q25 1 39 -9.5t19.5 -25.5t4.5 -29q-1 -8 -4 -19.5t-10 -21.5
q4 -11 17 -19.5t29 -13t30 -4.5q40 0 66 21t39.5 54t14.5 67q2 23 0 52t-12.5 57t-34.5 46t-66 18q-21 0 -53.5 -8t-68.5 -29l-41 33l24 334h249q34 0 55.5 11.5t23.5 53.5h63z" />
    <glyph glyph-name="six" unicode="6" horiz-adv-x="560" 
d="M333 716q63 0 102.5 -21t57.5 -51.5t16 -61.5q-1 -27 -18.5 -49t-48.5 -22q-37 0 -50.5 21.5t-12.5 41.5q1 8 4.5 21t12.5 23q-7 12 -24.5 21t-42.5 7q-29 -2 -51 -18.5t-38 -43t-26.5 -59.5t-17 -68t-8.5 -67q11 13 32.5 25.5t47.5 21t51 9.5q55 2 94 -14.5t63 -48
t34 -74.5t7 -94q-3 -63 -37 -115.5t-90.5 -84t-127.5 -31.5q-89 0 -139.5 41.5t-68.5 117.5t-12 179q2 35 11 85t28.5 103.5t52.5 100.5t82 76t117 29zM286 366q-21 0 -41 -9t-36 -24t-26 -33q-2 -35 0.5 -77t12 -80.5t28 -63.5t47.5 -25q35 0 55 19.5t29.5 51t11.5 65.5
q1 23 0 52.5t-8.5 58t-24.5 47t-48 18.5z" />
    <glyph glyph-name="seven" unicode="7" horiz-adv-x="460" 
d="M183 -16q-31 0 -43.5 17t-12.5 38q0 14 5 32.5t21 55.5t48 105q19 40 44.5 92.5t58.5 120.5t74 154l-211 2q-34 1 -55.5 -14t-23.5 -57h-63l17 170h425l-5 -91q-37 -69 -65 -134t-50.5 -130t-43.5 -135l-45 -150q-8 -28 -25 -52t-50 -24z" />
    <glyph glyph-name="eight" unicode="8" horiz-adv-x="562" 
d="M261 -16q-35 0 -74 9t-72.5 29t-53.5 53.5t-17 82.5q2 38 23 73.5t53 65t66 48.5q-64 42 -89 91t-23 89q3 49 25.5 85t57 59.5t75 35t79.5 11.5q52 0 98 -19.5t74.5 -57.5t25.5 -93q-2 -34 -22 -65.5t-48.5 -56.5t-57.5 -42q38 -37 65 -60.5t44 -43.5t24 -44t5 -62
q-3 -65 -40.5 -106.5t-95 -61.5t-122.5 -20zM266 54q48 -1 77 27.5t31 69.5q1 19 -4.5 39t-19.5 40t-38 40t-60 39q-41 -31 -62 -71.5t-23 -69.5q-5 -47 23.5 -80t75.5 -34zM318 422q33 23 56 57.5t26 62.5q5 50 -21 77t-64 27q-29 0 -51 -12.5t-34.5 -33.5t-14.5 -47
q-1 -26 12.5 -52t37.5 -46.5t53 -32.5z" />
    <glyph glyph-name="nine" unicode="9" horiz-adv-x="561" 
d="M301 716q67 0 112 -25t70.5 -70.5t35.5 -107.5t6 -135q-2 -45 -11 -98t-27.5 -105t-51.5 -95.5t-82.5 -69.5t-119.5 -26q-65 0 -104.5 19t-56 49t-14.5 63q2 27 20 50.5t49 23.5q38 0 50 -21.5t11 -41.5q-1 -8 -5 -21.5t-12 -21.5q8 -12 25 -20.5t42 -7.5q29 2 52 16.5
t39.5 39.5t28 57t17 68.5t5.5 74.5q-17 -19 -54 -37t-75 -20q-55 -1 -94.5 15.5t-64 48.5t-35 75t-7.5 94q4 67 36.5 118.5t88 81t126.5 29.5zM296 646q-30 0 -50.5 -19.5t-31.5 -50.5t-13 -66q-1 -22 0 -52t8.5 -58.5t25 -47t48.5 -18.5q21 0 40.5 9t35.5 24t25 33
q3 48 0.5 92t-12 79t-28 55t-48.5 20z" />
    <glyph glyph-name="colon" unicode=":" horiz-adv-x="250" 
d="M132 140q31 0 50.5 -23t17.5 -55q-1 -32 -22 -55t-53 -23q-33 0 -52 23t-18 55q2 32 25 55t52 23zM132 543q31 0 50.5 -23t17.5 -55q-1 -32 -22 -55t-53 -23q-33 0 -52 23t-18 55q2 32 25 55t52 23z" />
    <glyph glyph-name="semicolon" unicode=";" horiz-adv-x="270" 
d="M123 137q47 1 67.5 -29.5t18.5 -75.5q-1 -32 -13 -68t-34.5 -74t-55.5 -77l-37 28q11 14 26 40t27 57.5t12 60.5q-7 -2 -11.5 -2.5t-9.5 -0.5q-27 0 -47 16t-19 50q2 30 23 52.5t53 22.5zM138 543q31 0 50.5 -23t17.5 -55q-1 -32 -22 -55t-53 -23q-33 0 -52 23t-18 55
q2 32 25 55t52 23z" />
    <glyph glyph-name="less" unicode="&#x3c;" 
d="M480 72l-439 196l4 89l461 200l-6 -100l-328 -142l314 -142z" />
    <glyph glyph-name="equal" unicode="../%3d.html" 
d="M55 493h446l-4 -78h-446zM45 315h446l-4 -78h-446z" />
    <glyph glyph-name="greater" unicode="&#x3e;" 
d="M57 557l439 -196l-4 -89l-461 -200l6 100l328 142l-314 142z" />
    <glyph glyph-name="question" unicode="?" horiz-adv-x="485" 
d="M225 181q-21 0 -41 7t-31.5 22t-10.5 40q1 17 8 32t26 36.5t54 54.5q25 23 44.5 46.5t32 51.5t14.5 66q2 31 -5 55.5t-25 39t-52 14.5q-16 0 -31.5 -5t-27.5 -12t-19 -15q10 -10 14 -26.5t2 -27.5q-1 -13 -9.5 -28.5t-24 -25.5t-39.5 -9q-31 2 -45.5 21.5t-13.5 49.5
q2 36 31 70t77.5 56t108.5 22q79 0 124.5 -23t63.5 -59.5t16 -76.5q-2 -42 -25 -76.5t-55.5 -63.5t-65 -52.5t-54.5 -44.5t-23 -40q-1 -13 8.5 -21.5t30.5 -8.5q6 0 13.5 1t16.5 3l13 -51q-25 -13 -53 -17.5t-47 -4.5zM225 -16q-29 0 -49 23t-19 55q2 32 25 55t52 23
q31 0 50.5 -23t17.5 -55q-1 -32 -24.5 -55t-52.5 -23z" />
    <glyph glyph-name="at" unicode="@" horiz-adv-x="767" 
d="M422 637q83 0 143.5 -28.5t99.5 -76.5t55.5 -107.5t11.5 -121.5q-4 -61 -26 -106t-54 -73.5t-67.5 -41.5t-66.5 -11q-18 1 -35.5 7t-30.5 20t-18.5 39t-0.5 63q-31 -67 -67 -95.5t-68 -28.5q-42 0 -71 34.5t-25 110.5q2 49 19 96t47.5 85t74.5 60.5t100 22.5
q22 0 52.5 -5t63.5 -16q-6 -34 -14 -75t-15.5 -82.5t-12.5 -75.5t-6 -53q-1 -22 5.5 -40.5t31.5 -18.5q30 0 51 20t34.5 50.5t21 63.5t8.5 59q5 91 -27 154t-89.5 95.5t-131.5 32.5q-64 0 -118.5 -27.5t-95.5 -74t-65.5 -106t-27.5 -124.5q-4 -76 17 -134t61 -97.5t94 -60
t116 -20.5q41 0 85 11.5t86 35t76 58.5l21 -27q-59 -62 -132.5 -93.5t-151.5 -33.5q-91 -2 -158.5 26t-111 78t-63.5 114.5t-16 136.5q4 64 31.5 130.5t77.5 123.5t121 92t161 35zM418 435q-26 -2 -47 -23t-37 -53t-25 -69t-11 -72q-1 -35 7 -54t24 -19q19 0 39 28
t38.5 72.5t31.5 94t17 92.5q-6 2 -17 3t-20 0z" />
    <glyph glyph-name="A" unicode="A" horiz-adv-x="667" 
d="M384 718l185 -545q5 -15 13.5 -45.5t9.5 -53.5l57 3l-3 -77h-268l4 66q28 0 39.5 11.5t11 31.5t-8.5 45l-17 55l-219 -4l-19 -47q-5 -13 -15.5 -38.5t-20.5 -42.5l74 3l-5 -80h-214l4 69q28 0 45.5 16t30.5 42t26 56l223 535h67zM315 542q-4 -17 -16 -51t-31 -81
l-51 -130h168l-39 125q-10 36 -19 72.5t-12 64.5z" />
    <glyph glyph-name="B" unicode="B" horiz-adv-x="659" 
d="M347 702q119 1 186.5 -44.5t56.5 -137.5q-3 -29 -20 -56.5t-48.5 -49.5t-79.5 -35v-1q98 -16 141.5 -66.5t40.5 -112.5q-3 -65 -36.5 -109.5t-89 -67t-125.5 -22.5h-338l4 66q22 1 38 6t25.5 23t11.5 58l20 383q2 27 4.5 52t4.5 38q-16 -1 -40 -1.5t-35 -1.5l4 77
q69 1 137.5 1t137.5 1zM346 323h-43t-38 -1l-8 -163q-1 -27 -4 -51t-5 -37h34t32 0.5t32 0.5q61 3 90.5 39t32.5 91q3 46 -14.5 72.5t-46.5 37.5t-62 11zM340 632q-16 0 -30 -5t-22.5 -22.5t-10.5 -56.5l-8 -155q13 0 26 0.5t26 0.5q43 1 68.5 19t37.5 48.5t13 66.5
q3 40 -12 62.5t-38.5 32.5t-49.5 9z" />
    <glyph glyph-name="C" unicode="C" horiz-adv-x="690" 
d="M408 716q39 0 84.5 -12.5t84.5 -36.5h1l-1 42h77l-12 -233h-66q-9 83 -49 127.5t-110 44.5q-52 0 -92.5 -24t-68.5 -65.5t-43.5 -93t-18.5 -105.5q-4 -86 17.5 -153.5t67 -106.5t112.5 -40q60 -1 125 28.5t116 95.5l39 -40q-52 -67 -107.5 -101.5t-107.5 -46.5t-94 -12
q-77 0 -138.5 27.5t-104.5 76t-64 113t-17 139.5q4 68 29.5 135t72 121.5t114 87t154.5 32.5z" />
    <glyph glyph-name="D" unicode="D" horiz-adv-x="755" 
d="M361 701q99 0 169 -29.5t114 -79.5t63 -111.5t16 -123.5q-3 -61 -27.5 -124t-73 -115.5t-123.5 -85t-180 -32.5h-284l4 66q22 1 38 6t25.5 23t11.5 58l20 383q2 27 4.5 52t4.5 38q-16 -1 -40 -1.5t-35 -1.5l4 77zM355 634q-24 1 -41 -4.5t-26 -23.5t-11 -57l-20 -385
q-1 -27 -3.5 -52t-4.5 -38q10 1 27.5 0.5t36.5 -1t31 -0.5q73 0 121 38t73 98.5t28 126.5q8 153 -49.5 224t-161.5 74z" />
    <glyph glyph-name="E" unicode="E" horiz-adv-x="623" 
d="M570 700l-5 -194h-65q3 55 -15 83t-45.5 37.5t-54.5 8.5l-36 -1q-21 0 -36.5 -5.5t-24.5 -24t-11 -57.5l-7 -150h117v29.5v30.5v27h77l-12 -243h-66q2 42 -10.5 60.5t-34.5 23.5t-49 4l-26 -1l-9 -164q-1 -27 -3.5 -51t-4.5 -37h134q30 0 58.5 13.5t48 45t22.5 85.5h66
l-17 -220h-526l4 66q22 1 38 6t25.5 23t11.5 58l20 383q2 27 4.5 52t4.5 38q-16 -1 -40 -1.5t-35 -1.5l4 77h498z" />
    <glyph glyph-name="F" unicode="F" horiz-adv-x="566" 
d="M570 700l-5 -194h-65q3 55 -15 83t-45.5 37.5t-54.5 8.5l-36 -1q-21 0 -36.5 -5.5t-24.5 -24t-11 -57.5l-9 -174h104v29v30v27h77l-13 -243h-66q3 42 -9.5 61t-34.5 23.5t-49 3.5h-6h-6l-8 -140q-1 -27 -3.5 -52t-4.5 -38q11 1 29 1.5t35 1t24 0.5l-4 -77h-298l4 66
q22 1 38 6t25.5 23t11.5 58l20 383q2 27 4.5 52t4.5 38q-16 -1 -40 -1.5t-35 -1.5l4 77h498z" />
    <glyph glyph-name="G" unicode="G" horiz-adv-x="756" 
d="M361 -16q-108 0 -182 47.5t-109.5 128.5t-30.5 180q3 68 28 135t71.5 121.5t113.5 87t154 32.5q26 0 60 -5.5t68 -16.5t59 -27v42h77l-12 -233h-66q-6 56 -30 93t-61.5 56t-84.5 19q-52 0 -92.5 -24t-68 -64t-43 -91t-18.5 -105q-4 -86 16.5 -153t66 -105.5t113.5 -38.5
q19 0 46 3t53.5 9t45.5 15l5 93q2 27 4 52t4 38q-16 -1 -40 -1.5t-35 -1.5l4 77h263l-3 -66q-17 -1 -29.5 -4t-21.5 -11.5t-13.5 -25.5t-6.5 -46l-8 -160h-25q-26 0 -52.5 -6.5t-55.5 -15.5q-34 -10 -74 -19t-90 -9z" />
    <glyph glyph-name="H" unicode="H" horiz-adv-x="802" 
d="M774 700l-3 -66q-22 -1 -38.5 -6t-26 -22.5t-11.5 -58.5l-20 -383q-1 -27 -4 -52t-5 -38q17 2 41 2.5t34 0.5l-4 -77h-284l3 66q23 1 39 6t25.5 23t11.5 58l9 162l-276 -3l-8 -148q-1 -27 -3.5 -52t-4.5 -38q16 2 40.5 2.5t34.5 0.5l-4 -77h-285l4 66q22 1 38 6t25.5 23
t11.5 58l20 383q2 27 4.5 52t4.5 38q-16 -1 -40 -1.5t-35 -1.5l4 77h284l-3 -66q-22 -1 -38.5 -6t-26 -22.5t-11.5 -58.5l-8 -156h275l8 145q2 27 4 52t5 38q-16 -1 -40.5 -1.5t-35.5 -1.5l4 77h285z" />
    <glyph glyph-name="I" unicode="I" horiz-adv-x="384" 
d="M356 700l-3 -66q-22 -1 -38.5 -6t-26 -22.5t-11.5 -58.5l-20 -383q-1 -27 -3.5 -52t-4.5 -38q16 2 40.5 2.5t34.5 0.5l-4 -77h-285l4 66q22 1 38 6t25.5 23t11.5 58l20 383q2 27 4.5 52t4.5 38q-16 -1 -40 -1.5t-35 -1.5l4 77h284z" />
    <glyph glyph-name="J" unicode="J" horiz-adv-x="445" 
d="M440 700l-3 -66q-22 -1 -38.5 -6t-26 -22.5t-11.5 -58.5l-15 -293q-5 -96 -32 -155.5t-74 -87t-115 -27.5q-39 0 -70.5 14t-49.5 38t-16 55q2 32 20.5 57t52.5 26q38 2 53 -18.5t15 -46.5q0 -8 -2.5 -18t-7.5 -19q4 -10 14 -13t15 -3q15 0 25 8t16 25.5t7 45.5l21 401
q2 27 4.5 52t4.5 38q-10 0 -26.5 -0.5t-31.5 -1t-22 -1.5l4 77h289z" />
    <glyph glyph-name="K" unicode="K" horiz-adv-x="711" 
d="M35 0l4 66q22 1 38 6t25.5 23t11.5 58l20 383q2 27 4.5 52t4.5 38q-16 -1 -40 -1.5t-35 -1.5l4 77h284l-3 -66q-22 -1 -38.5 -6t-26 -22.5t-11.5 -58.5l-8 -152h73l83 131q20 30 40.5 60t33.5 41q-16 -1 -34 -2t-29 -2l3 77h245l-3 -66q-22 -1 -48 -8t-54 -28t-58 -66
l-104 -154q19 -13 34 -27.5t25 -31.5l94 -145q19 -28 39.5 -52.5t42.5 -39.5t44 -16l-4 -66h-152q-8 1 -25.5 18t-36 41t-31.5 43l-91 144q-13 19 -27.5 39t-27.5 30h-14h-22l-8 -151q-1 -27 -3.5 -52t-4.5 -38q16 2 40.5 2.5t34.5 0.5l-4 -77h-285z" />
    <glyph glyph-name="L" unicode="L" horiz-adv-x="606" 
d="M356 700l-3 -66q-22 -1 -38.5 -6t-26 -22.5t-11.5 -58.5l-20 -383q-1 -27 -3.5 -51t-4.5 -37h134q59 1 95 41.5t40 122.5h66l-18 -240h-531l4 66q22 1 38 6t25.5 23t11.5 58l20 383q2 27 4.5 52t4.5 38q-16 -1 -40 -1.5t-35 -1.5l4 77h284z" />
    <glyph glyph-name="M" unicode="M" horiz-adv-x="970" 
d="M397 -10l-122 329q-7 19 -18 54.5t-22 78.5t-19 83h-1q-1 -51 -2.5 -98t-4.5 -92l-11 -181q-1 -27 -4 -52t-5 -38q17 2 41.5 2.5t34.5 0.5l-4 -77h-228l4 66q23 1 38.5 6t24.5 23t12 58l26 383q2 27 4.5 52t4.5 38q-16 -1 -40.5 -1.5t-35.5 -1.5l5 77h214l137 -388
q17 -46 27.5 -86t20.5 -76h1l28 70t27 67l58 138t57.5 137.5t57.5 137.5h233l-4 -66q-22 -1 -39 -6t-26.5 -22.5t-10.5 -58.5l-5 -383q0 -27 -3 -52t-6 -38q17 2 41.5 2.5t34.5 0.5l-4 -77h-280l4 66q23 1 39.5 6t26 23t9.5 58l3 212q1 12 1 42.5v67v67.5h-1l-47 -114
l-182 -438h-90z" />
    <glyph glyph-name="N" unicode="N" horiz-adv-x="772" 
d="M566 -10l-298 411q-12 17 -25 36t-26 39h-1l-14 -312q-1 -27 -4 -52t-5 -38q17 2 41 2.5t35 0.5l-5 -77h-228l4 66q23 1 39 6t25.5 23t11.5 58l17 383q2 27 4.5 52t4.5 38q-16 -1 -40.5 -1.5t-35.5 -1.5l5 77h157l285 -387q23 -32 38.5 -55.5t26.5 -40.5h1l16 319
q2 27 4.5 52t4.5 38q-16 -1 -40.5 -1.5t-35.5 -1.5l5 77h227l-3 -66q-23 -1 -39 -6t-25.5 -22.5t-11.5 -58.5l-30 -557h-85z" />
    <glyph glyph-name="O" unicode="O" horiz-adv-x="762" 
d="M406 716q91 0 154.5 -33t102 -87.5t54.5 -118.5t13 -127q-3 -62 -27.5 -126t-70 -118.5t-112 -88t-155.5 -33.5q-95 0 -159.5 32t-102 85.5t-52.5 118.5t-11 130q3 63 27 127.5t70 118.5t113 87t156 33zM389 648q-51 -1 -87.5 -28t-59.5 -70t-34.5 -92.5t-13.5 -95.5
q-3 -47 4.5 -100.5t28.5 -101.5t58 -78t94 -30q52 0 88.5 26.5t59.5 68.5t35 91t14 95q3 69 -6 127t-32 100.5t-60 65.5t-89 22z" />
    <glyph glyph-name="P" unicode="P" horiz-adv-x="632" 
d="M354 702q88 1 151.5 -23t96 -74t25.5 -130q-3 -40 -22.5 -78.5t-56 -70t-90 -51.5t-124.5 -22q-22 -1 -38.5 -1t-33.5 1l-5 -88q-1 -28 -3.5 -53t-4.5 -38q11 1 28 1.5t33 1t23 0.5l-3 -77h-295l4 66q22 1 38 6t25.5 23t11.5 58l20 383q2 27 4.5 52t4.5 38
q-16 -1 -40 -1.5t-35 -1.5l4 77q71 1 141.5 1t140.5 1zM349 632q-21 0 -36.5 -5t-24.5 -22t-11 -52l-11 -225l22 -2t23 -1q55 0 90.5 18.5t53.5 54t21 86.5q2 50 -10 80t-32.5 44.5t-43 19t-41.5 4.5z" />
    <glyph glyph-name="Q" unicode="Q" horiz-adv-x="764" 
d="M407 716q91 0 154.5 -33t102.5 -87.5t55 -118.5t13 -127q-3 -50 -19 -101.5t-46 -99t-74 -85t-102 -58.5v-1q29 0 51 -4t43 -15.5t45 -36.5q33 -32 53 -52t32.5 -30.5t24 -14t27.5 -3.5l-4 -67h-41q-46 0 -73.5 3.5t-48.5 15t-48 35.5q-30 28 -53.5 54.5t-44.5 47.5
t-44.5 33.5t-54.5 12.5q-92 0 -154.5 32.5t-99 86t-51 118.5t-11.5 129q3 63 28 127.5t70.5 118.5t113 87t156.5 33zM390 643q-52 -1 -88 -27.5t-59 -68t-34.5 -90.5t-14.5 -95q-2 -47 5.5 -100t28 -100t57.5 -76t94 -29q52 0 88.5 25.5t60 66.5t35 89.5t13.5 94.5
q4 69 -5 126t-32 98.5t-60 64t-89 21.5z" />
    <glyph glyph-name="R" unicode="R" horiz-adv-x="681" 
d="M354 702q88 1 151 -20t95 -68t25 -127q-3 -42 -24.5 -80t-61.5 -67t-99 -46q9 -4 18 -10.5t17.5 -15.5t16.5 -18.5t14 -19.5l43 -70q21 -34 36.5 -54t32 -29.5t38.5 -10.5l-4 -66h-162q-17 13 -34 37.5t-35 56.5l-67 120q-11 20 -20.5 34t-18.5 24h-18.5h-16h-17.5
l-6 -107q-1 -28 -3.5 -53t-4.5 -38q11 1 28 1.5t33 1t23 0.5l-3 -77h-295l4 66q22 1 38 6t25.5 23t11.5 58l20 383q2 27 4.5 52t4.5 38q-16 -1 -40 -1.5t-35 -1.5l4 77q71 1 141.5 1t140.5 1zM349 632q-21 0 -36.5 -5t-24.5 -22t-11 -52l-10 -205q11 -1 23 -2.5t25 -1.5
q56 0 91 16.5t52.5 50t19.5 84.5q3 48 -11 75.5t-35.5 41t-44.5 17t-38 3.5z" />
    <glyph glyph-name="S" unicode="S" horiz-adv-x="600" 
d="M291 -16q-39 0 -85.5 12.5t-84.5 36.5v-42h-77l12 234h66q6 -56 30 -93.5t62 -56.5t84 -19q36 0 63.5 13t44 34.5t17.5 46.5q2 35 -21 58.5t-59 40t-73 31.5q-63 26 -113 58t-77 77t-24 110q2 31 15.5 64.5t42 62t74.5 46.5t112 18q40 0 87 -12t78 -36v41h77l-12 -233
h-66q-6 56 -27 93.5t-55.5 56.5t-81.5 18q-43 0 -76.5 -24t-35.5 -62q-1 -31 15 -54.5t50.5 -44t88.5 -42.5q37 -15 76 -35t71.5 -47t52 -63.5t17.5 -85.5q-3 -59 -37.5 -105t-93.5 -71.5t-137 -25.5z" />
    <glyph glyph-name="T" unicode="T" horiz-adv-x="648" 
d="M650 700l-6 -226h-66q3 54 -10.5 89.5t-40 53t-64.5 16.5h-48l-24 -469q-1 -27 -4 -52t-5 -38q11 1 27 1.5t31 1t22 0.5l-4 -77h-290l4 66q23 1 39 6t25.5 23t11.5 58l25 479h-46q-57 -1 -92.5 -39t-39.5 -119h-66l17 226h604z" />
    <glyph glyph-name="U" unicode="U" horiz-adv-x="755" 
d="M756 700l-4 -66q-22 -1 -38 -6t-25.5 -22.5t-11.5 -58.5l-13 -250q-5 -86 -29.5 -146t-64 -97t-91.5 -53.5t-112 -16.5q-84 0 -138.5 24t-84.5 67t-40 99t-7 120l13 242q2 27 4 52t5 38q-16 -1 -40.5 -1.5t-35.5 -1.5l4 77h286l-4 -66q-22 -1 -38.5 -6t-26 -22.5
t-11.5 -58.5l-14 -275q-3 -63 8 -103.5t32.5 -64t49.5 -33.5t58 -11q55 -2 95.5 21t63.5 71t27 122l14 262q2 27 4 52t5 38q-16 -1 -40 -1.5t-35 -1.5l3 77h232z" />
    <glyph glyph-name="V" unicode="V" horiz-adv-x="702" 
d="M726 700l-4 -66q-34 -1 -60 -25t-51 -82q-19 -44 -38 -88.5l-38 -89l-38 -89l-38 -89t-38 -88.5t-38 -89h-78l-203 537q-9 25 -16.5 52t-6.5 43q-16 -1 -29.5 -1.5t-24.5 -1.5l4 77h291l-3 -66q-37 1 -57.5 -16t-4.5 -61l80 -226q15 -42 25.5 -74t23.5 -70h1
q13 29 27.5 67t28.5 72q15 35 29.5 70t29 69.5t28.5 69.5q17 41 27 61.5t19 30.5q-16 -1 -41 -2t-36 -2l3 77h226z" />
    <glyph glyph-name="W" unicode="W" horiz-adv-x="1010" 
d="M256 -6l-151 539q-9 25 -16.5 51t-6.5 42q-16 -1 -29 -1.5t-24 -1.5l4 77h292l-4 -66q-37 1 -55 -14t-8 -61l49 -228q7 -34 13 -64t13 -78h1q4 14 13.5 43t20.5 62.5t20 61t13 38.5l109 306h90l94 -368q9 -34 15.5 -70.5t12.5 -73.5h1q11 32 22.5 66.5t23.5 71.5
q8 26 16.5 52t16.5 52.5t16.5 52.5t16.5 52q8 24 19 49.5t27 42.5q-16 -1 -41 -2t-36 -2l4 77h225l-3 -66q-17 -1 -32.5 -7t-29.5 -18t-26.5 -32.5t-23.5 -49.5l-191 -533h-87l-100 358q-11 39 -17.5 76.5t-11.5 71.5h-1q-7 -34 -15.5 -65.5t-20.5 -65.5l-134 -375h-84z" />
    <glyph glyph-name="X" unicode="X" horiz-adv-x="700" 
d="M21 0l4 66q29 7 59.5 32.5t69.5 74.5l125 155q-37 51 -75 102l-76 102q-16 21 -30.5 45t-24.5 49q-16 -1 -22.5 -1.5t-17.5 -1.5l4 77h302l-4 -66q-36 0 -50.5 -9t-12 -24.5t16.5 -34.5l82 -113l82 105q23 29 36 42.5t26 26.5q-16 -1 -40 -2t-35 -2l4 77h228l-4 -66
q-23 -3 -46 -16t-47.5 -36.5t-53.5 -60.5l-103 -131l176 -240q16 -21 29.5 -40t20.5 -36q17 2 22.5 2.5t16.5 0.5l-4 -77h-297l4 66q37 0 49 9t7 24.5t-20 34.5l-95 129l-94 -121q-22 -28 -34 -42t-25 -27q17 2 39 3t33 1l-4 -77h-221z" />
    <glyph glyph-name="Y" unicode="Y" horiz-adv-x="665" 
d="M190 0l4 66q23 1 39 6t25.5 23t11.5 58l4 87l-169 291q-13 23 -23.5 51t-9.5 44q-16 -1 -27 -1.5t-22 -1.5l4 77h292l-3 -66q-29 2 -48.5 -6t-24 -25.5t9.5 -45.5q17 -31 35 -62t35 -63q4 -8 13 -25.5t18.5 -37t13.5 -34.5h2q5 12 18.5 36t32.5 62q14 26 29 51.5t29 50.5
q6 11 16 28.5t21 35t20 27.5q-16 -1 -41 -1.5t-36 -1.5l4 77h221l-3 -66q-35 -5 -61 -28.5t-58 -78.5l-144 -250l-5 -113q-1 -27 -4 -52t-5 -38q11 1 27 1.5t31 1t22 0.5l-4 -77h-290z" />
    <glyph glyph-name="Z" unicode="Z" horiz-adv-x="603" 
d="M25 0l4 75l324 456q23 33 39.5 55.5t35.5 43.5l-172 5q-55 2 -92 -32.5t-42 -115.5h-66l17 213h507l-4 -75l-311 -436q-22 -31 -45.5 -61.5t-46.5 -56.5l182 -5q56 -1 93 32.5t41 115.5h66l-17 -214h-513z" />
    <glyph glyph-name="bracketleft" unicode="[" horiz-adv-x="388" 
d="M406 755l-4 -71l-193 -3l-49 -862l199 -3l-4 -71h-323l54 1010h320z" />
    <glyph glyph-name="backslash" unicode="\" horiz-adv-x="792" 
d="M669 -271l-625 968l84 58l612 -975z" />
    <glyph glyph-name="bracketright" unicode="]" horiz-adv-x="388" 
d="M-25 -255l4 71l193 3l49 862l-199 3l4 71h323l-54 -1010h-320z" />
    <glyph glyph-name="asciicircum" unicode="^" horiz-adv-x="823" 
d="M619 437l-208 206l-227 -202h-131l322 275h89l292 -279h-137z" />
    <glyph glyph-name="underscore" unicode="_" horiz-adv-x="835" 
d="M82 -50l614 -4v-97h-614v101z" />
    <glyph glyph-name="grave" unicode="`" horiz-adv-x="277" 
d="M184 565l-114 107q-12 13 -19.5 30.5t-5 35.5t18.5 32q17 13 34 12.5t32 -10t24 -26.5l78 -140z" />
    <glyph glyph-name="a" unicode="a" horiz-adv-x="549" 
d="M327 511q28 0 65.5 -5.5t78.5 -15.5q-5 -37 -13 -91t-15.5 -110.5t-12.5 -104t-5 -73.5q0 -18 4.5 -23.5t9.5 -5.5q12 0 25 17t26 62l54 -16q-4 -21 -14 -48t-26.5 -51.5t-41 -40.5t-57.5 -16q-32 0 -56 19t-24 72q0 13 1 29t3 29h-1q-18 -43 -38.5 -72t-42 -46t-44 -24
t-45.5 -7q-55 0 -94 44.5t-39 137.5q0 69 20 130t59 108.5t95 74.5t128 27zM290 445q-28 0 -51.5 -18t-41 -53t-26.5 -87t-9 -121q0 -41 10 -64.5t28 -23.5q22 0 41 22.5t34.5 61t27 86t19 97t9.5 94.5q-5 2 -17.5 4t-23.5 2z" />
    <glyph glyph-name="b" unicode="b" horiz-adv-x="513" 
d="M225 755q-4 -29 -8 -69t-7.5 -77.5t-5.5 -57.5l-3.5 -38.5t-6 -60t-8.5 -59.5h1q17 33 36 55.5t39 36t38.5 20t34.5 6.5q51 0 82.5 -27t46 -70.5t14.5 -93.5q0 -67 -15 -127t-47 -106t-83.5 -72t-125.5 -26q-16 0 -44 2.5t-59 8.5t-57 16q3 80 6 145.5t6.5 127t7.5 127
t9 144.5q1 17 3 43.5t5 48.5q-16 -1 -37 -1.5t-32 -1.5l4 76q46 0 77 5t49.5 12t25.5 13h54zM295 419q-19 0 -37 -18.5t-33 -51.5t-26.5 -78t-18.5 -97.5t-8 -109.5q8 -4 23.5 -6.5t25.5 -2.5q33 0 54.5 18.5t35 49t20 67t8.5 72t2 63.5q0 54 -14.5 74t-31.5 20z" />
    <glyph glyph-name="c" unicode="c" horiz-adv-x="467" 
d="M273 511q46 0 82.5 -15t58 -41.5t21.5 -63.5q0 -30 -17.5 -49t-46.5 -20q-34 -1 -48 20.5t-14 38.5q0 9 2.5 20.5t7.5 21.5q-4 9 -17 15.5t-31 6.5q-32 0 -52.5 -21.5t-32 -54.5t-16.5 -69.5t-6 -66.5q-2 -54 10 -87t32 -48t41 -17q19 -1 43 5.5t49 29t45 69.5l57 -28
q-28 -65 -63 -101.5t-74 -51t-81 -15.5q-88 1 -142 54t-54 164q0 48 15 101t45.5 99t76.5 75t109 29z" />
    <glyph glyph-name="d" unicode="d" horiz-adv-x="564" 
d="M176 -11q-50 0 -83 25.5t-49 68.5t-16 97q0 95 29.5 170t91 118t156.5 43q7 0 24 -0.5t24 -1.5q5 46 7.5 73t4.5 43t4 27q-16 -1 -37.5 -1.5t-32.5 -1.5l4 76q47 0 78 5t49.5 12t25.5 13h54q-9 -80 -18.5 -160t-18.5 -160q-7 -68 -15 -131t-13 -113t-5 -80q0 -18 5 -23.5
t10 -5.5q11 0 23 17t25 62l55 -16q-4 -21 -14 -48t-26 -51.5t-39.5 -40.5t-56.5 -16q-32 0 -56 19t-24 72q0 20 1 31.5t3 28.5h-1q-24 -59 -53 -92t-59 -46t-57 -13zM213 80q25 0 45.5 25t37 69.5t28.5 102.5q7 36 12 76.5t9 83.5q-7 3 -25 5.5t-28 2.5q-34 0 -57 -19.5
t-37 -50.5t-21.5 -67t-10 -69.5t-2.5 -57.5q0 -51 13.5 -76t35.5 -25z" />
    <glyph glyph-name="e" unicode="e" horiz-adv-x="470" 
d="M280 511q44 0 78 -13t53 -41t19 -72q0 -41 -24.5 -69.5t-64 -46.5t-86.5 -29.5t-91 -17.5q0 -57 13.5 -87.5t34.5 -42t42 -11.5q17 0 40.5 6.5t47.5 27.5t42 62l56 -27q-28 -65 -63 -100t-73 -48t-77 -13q-92 -1 -146 53t-54 165q0 48 15 101t45.5 99t78.5 75t114 29z
M269 445q-34 0 -55 -24t-32 -60.5t-15 -73.5q54 10 86 27t46.5 39t13.5 46q-1 25 -15 35.5t-29 10.5z" />
    <glyph glyph-name="f" unicode="f" horiz-adv-x="353" 
d="M329 760q45 0 69.5 -21t24.5 -53q0 -11 -6 -25.5t-19.5 -25t-36.5 -10.5q-22 1 -37.5 18.5t-11.5 43.5q-1 1 -4.5 1.5t-8.5 0.5q-17 0 -28 -18t-17.5 -47t-10 -62t-6.5 -62h129l-7 -69l-126 -2q-3 -43 -7 -100.5t-9 -120t-10 -120t-10 -99.5q-5 -46 -16.5 -86t-28.5 -72
t-42 -55t-57 -35t-73 -12q-46 0 -70.5 19.5t-24.5 52.5q0 12 6 27t20 26t36 10q23 -1 38 -18.5t11 -43.5q6 -2 13 -2q17 0 28 18t17.5 47t10 62t6.5 62q4 43 8 100.5t8.5 120t9 119.5t7.5 99l-80 -1l9 73h80q9 77 33.5 135.5t69.5 91.5t113 33z" />
    <glyph glyph-name="g" unicode="g" horiz-adv-x="520" 
d="M182 -271q-37 0 -67 6.5t-51.5 19.5t-33 32.5t-11.5 44.5q0 15 7 32t21.5 29t38.5 12q27 0 45 -17t18 -46q0 -16 -6 -30q5 -7 21 -12t27 -5q40 0 62 22.5t32.5 61.5t16.5 88q7 53 14.5 92t19.5 79h-1q-19 -44 -39 -73t-41.5 -45.5t-44 -23.5t-45.5 -7q-36 0 -67.5 19.5
t-51 60t-19.5 102.5q0 69 16.5 130.5t52 108.5t90.5 74t131 27q28 0 70.5 -5.5t82.5 -15.5q-2 -36 -5.5 -93.5t-8 -123.5t-9.5 -127.5t-9 -105.5q-8 -94 -35.5 -164t-81 -108.5t-139.5 -38.5zM206 78q22 0 41 22.5t34.5 61t27.5 86t20 97t10 94.5q-6 2 -19.5 4t-26.5 2
q-34 0 -59 -18.5t-40.5 -54.5t-23 -87.5t-7.5 -118.5q0 -27 5.5 -47t15.5 -30.5t22 -10.5z" />
    <glyph glyph-name="h" unicode="h" horiz-adv-x="574" 
d="M417 -11q-55 0 -75 30t-20 83q0 30 4 67.5t8.5 76.5t8.5 73.5t4 57.5q0 15 -3 24.5t-9 13.5t-16 4q-18 0 -37.5 -22t-38 -59.5t-33 -83t-23 -93t-8.5 -89.5q0 -13 1 -36.5t2 -35.5h-128q-2 21 -2.5 29.5t-0.5 18.5q0 49 2 104.5t5 112t7 110.5t8.5 101t8.5 83
q2 17 5.5 45t7.5 48l-70 -3l4 76q47 0 78 5t49 12t25 13h54q-3 -29 -8 -69t-9.5 -77.5t-7.5 -57.5q-1 -8 -3 -28.5t-6 -48.5t-8.5 -57.5t-10.5 -56.5h1q23 60 52 93t60 45.5t59 12.5q64 0 93 -41.5t29 -112.5q0 -36 -6 -80t-12.5 -88t-6.5 -81q0 -16 4.5 -21t10.5 -5
q11 0 23 17t25 62l54 -16q-4 -21 -15.5 -48t-30.5 -51.5t-45 -40.5t-60 -16z" />
    <glyph glyph-name="i" unicode="i" horiz-adv-x="344" 
d="M156 511q52 0 72.5 -31.5t20.5 -84.5q0 -24 -5 -65t-11 -86t-11 -82t-5 -54q0 -16 5 -21t10 -5q12 0 24 17t25 62l54 -16q-4 -21 -15.5 -48t-30.5 -51.5t-45.5 -40.5t-60.5 -16q-55 0 -75.5 30t-20.5 83q0 29 5 69t11.5 82t11.5 78.5t5 60.5q0 17 -5 21.5t-11 4.5
q-11 0 -23 -17t-25 -62l-54 16q4 21 16 48t31.5 51.5t46 40.5t60.5 16zM191 763q33 0 53.5 -24t18.5 -59q-1 -34 -23 -57.5t-55 -23.5q-34 0 -54.5 23.5t-19.5 57.5q2 35 26 59t54 24z" />
    <glyph glyph-name="j" unicode="j" horiz-adv-x="313" 
d="M157 511q52 0 74 -31.5t23 -84.5q1 -51 -2 -121.5t-9 -139.5q-5 -53 -14 -109.5t-26 -109t-45 -94.5t-69 -67t-99 -25q-46 0 -72 20.5t-26 53.5q0 12 6 27t20 26t37 10q22 -1 38.5 -19.5t10.5 -49.5q4 -2 15 -2q17 0 30.5 20.5t23.5 54t17.5 73t12.5 79t8 72t4 51.5
q5 66 7.5 133.5t2.5 113.5q0 17 -5 21.5t-10 4.5q-11 0 -23 -17t-25 -62l-55 16q5 21 16 48t29.5 51.5t44.5 40.5t60 16zM196 763q33 0 53.5 -24t18.5 -59q-1 -34 -23 -57.5t-56 -23.5t-54 23.5t-19 57.5q2 35 26 59t54 24z" />
    <glyph glyph-name="k" unicode="k" horiz-adv-x="518" 
d="M370 -11q-44 0 -72 28t-55 101q-10 27 -18 48t-19 28q-4 3 -8.5 4.5t-9.5 -0.5q-6 -28 -9 -66.5t-3 -64.5q0 -13 1 -33t2 -34h-130q-2 21 -2.5 30t-0.5 19q0 11 1.5 45.5t4.5 85.5t8 113.5t11.5 130.5t15.5 135q2 20 6.5 45.5t8.5 47.5q-16 -1 -38.5 -1.5t-33.5 -1.5
l4 76q47 0 78 5t49.5 12t25.5 13h54q-5 -36 -10.5 -74.5t-10.5 -78t-10 -81.5q-4 -41 -9.5 -72t-10.5 -58h1q22 44 49.5 70.5t56 38t54.5 11.5q37 0 61 -13t35.5 -36.5t11.5 -56.5q0 -30 -17.5 -67t-59 -69t-113.5 -47v-1q42 -1 60.5 -21.5t26.5 -41.5q10 -21 17.5 -37
t15 -24.5t15.5 -8.5q11 0 21.5 15t21.5 54l54 -17q-7 -36 -24.5 -70.5t-44 -57.5t-62.5 -23zM195 262q74 0 109 37.5t35 101.5q0 13 -2.5 23t-8.5 15.5t-15 5.5q-16 0 -39.5 -21t-45 -62t-33.5 -100z" />
    <glyph glyph-name="l" unicode="l" horiz-adv-x="303" 
d="M243 755q-3 -31 -6.5 -60.5t-6.5 -56.5t-6 -53q-11 -96 -19 -167.5t-13.5 -123t-9 -86.5t-5 -58t-1.5 -39q0 -18 4.5 -23.5t9.5 -5.5q12 0 24 17t25 62l54 -16q-6 -25 -17.5 -52.5t-29.5 -51t-44.5 -38t-62.5 -14.5t-63 22t-27 74q0 36 2.5 79t6.5 91t9.5 98.5
t11.5 102.5t12 103q2 20 5.5 45.5t7.5 47.5q-16 -1 -37.5 -1.5t-32.5 -1.5l4 76q46 0 77 5t49 12t25 13h54z" />
    <glyph glyph-name="m" unicode="m" horiz-adv-x="878" 
d="M721 -11q-55 0 -74.5 30t-19.5 83q0 30 4 67.5t8.5 76.5t8.5 73.5t4 57.5q0 15 -2.5 24.5t-8.5 13.5t-17 4q-18 0 -37 -21.5t-36.5 -58t-31 -81.5t-21.5 -92t-8 -89q0 -13 1 -35.5t2 -41.5h-129q-2 21 -2.5 39.5t-0.5 27.5q0 43 3.5 87.5t8 87t8 77.5t3.5 58t-6.5 32.5
t-21.5 9.5q-18 0 -37.5 -22t-37.5 -59.5t-32.5 -83t-23 -93t-8.5 -89.5q0 -13 1 -36.5t2 -35.5h-128q-2 21 -2.5 29.5t-0.5 18.5q0 20 2 46.5t6 58t8 62.5q3 29 6.5 56t6.5 51t5 42t2 28q0 17 -4.5 21.5t-9.5 4.5q-11 0 -23 -17t-25 -62l-55 16q5 21 14 48t25 51.5t39 40.5
t56 16q22 0 41 -8t31 -27.5t12 -55.5q0 -19 -2 -31t-4 -29h1q24 60 53.5 93t61 45.5t59.5 12.5q33 0 54.5 -13.5t32.5 -39.5t11 -62v-17t-2 -19h1q24 60 51.5 93t57.5 45.5t58 12.5q43 0 69.5 -19t39 -53.5t12.5 -81.5q0 -36 -6 -80t-12.5 -88t-6.5 -81q0 -16 5 -21t10 -5
q11 0 23 17t25 62l55 -16q-4 -21 -16 -48t-30.5 -51.5t-45 -40.5t-60.5 -16z" />
    <glyph glyph-name="n" unicode="n" horiz-adv-x="610" 
d="M453 -11q-55 0 -74.5 30t-19.5 83q0 30 4 67.5t8.5 76.5t8.5 73.5t4 57.5q0 15 -3 24.5t-9 13.5t-16 4q-18 0 -37.5 -22t-37.5 -59.5t-32 -83t-22.5 -93t-8.5 -89.5q0 -13 1 -36.5t2 -35.5h-129q-2 21 -2.5 29.5t-0.5 18.5q0 21 2.5 49.5t6.5 62t8 66.5q3 27 6.5 52.5
t6.5 48t4.5 39.5t1.5 26q0 17 -4.5 21.5t-9.5 4.5q-11 0 -23 -17t-25 -62l-55 16q5 21 14 48t25 51.5t39 40.5t56 16q22 0 41 -8t31 -27.5t12 -55.5q0 -19 -2 -31t-4 -29h1q24 60 52.5 93t59 45.5t59.5 12.5q43 0 69 -19t38.5 -53.5t12.5 -81.5q0 -36 -6 -80t-12.5 -88
t-6.5 -81q0 -16 5 -21t10 -5q11 0 23 17t25 62l54 -16q-4 -21 -15.5 -48t-30.5 -51.5t-45 -40.5t-60 -16z" />
    <glyph glyph-name="o" unicode="o" horiz-adv-x="515" 
d="M279 511q56 0 101.5 -26t72.5 -76t27 -121q0 -79 -30.5 -147.5t-86.5 -110t-134 -41.5q-67 0 -112 30.5t-67 82.5t-22 114q0 80 30.5 147t87 107.5t133.5 40.5zM264 445q-30 1 -52.5 -26.5t-35 -73.5t-12.5 -101q0 -30 3.5 -63t13 -61.5t25 -46.5t39.5 -18q26 0 44 20
t29.5 51.5t17 66.5t6.5 66q1 27 -2 59t-11 61t-24 47.5t-41 18.5z" />
    <glyph glyph-name="p" unicode="p" horiz-adv-x="575" 
d="M28 -255v65q25 0 37.5 11.5t18 32t7.5 46.5q11 117 18 202.5t10.5 143.5t5 92.5t1.5 50.5q0 18 -4.5 23.5t-10.5 5.5q-11 0 -23 -17t-25 -62l-54 16q4 21 13 48t25 51.5t39.5 40.5t56.5 16q32 0 57 -19t25 -72q0 -19 -1 -31t-3 -29h1q24 60 53.5 93t60.5 45.5t57 12.5
q48 0 81 -24t50 -67t17 -100q0 -95 -30.5 -170t-93 -118t-158.5 -43h-14.5t-17.5 1q-2 -48 -4 -80.5t-4 -54t-4 -37.5q16 2 36 2.5t30 0.5v-76h-253zM271 55q34 0 57.5 19.5t38.5 50.5t23.5 67t11.5 69.5t3 57.5q0 37 -6 59t-17 32t-26 10q-20 0 -37.5 -16t-32 -48
t-25.5 -79t-19 -109q-3 -25 -6 -51.5t-5 -55.5q11 -3 22.5 -4.5t17.5 -1.5z" />
    <glyph glyph-name="q" unicode="q" horiz-adv-x="522" 
d="M314 511q21 0 49 -2.5t57.5 -6t54.5 -8.5q-5 -73 -10.5 -146.5l-11 -147t-11 -146.5t-10.5 -147q-1 -14 -3 -40t-5 -49q17 2 37.5 2.5t30.5 0.5v-76h-253v65q33 0 45.5 17t16.5 56.5t9 106.5q2 26 5.5 58t7.5 58h-1q-26 -50 -52.5 -75t-51.5 -33.5t-49 -8.5q-47 0 -79 27
t-47.5 70.5t-15.5 92.5q0 90 30 165.5t93.5 121t163.5 45.5zM300 445q-41 0 -67.5 -23t-41.5 -60.5t-21 -83.5t-6 -93q0 -61 17.5 -83t33.5 -22q19 0 36.5 21t33.5 57t28 82.5t20 97.5t9 101q-6 3 -20.5 4.5t-21.5 1.5z" />
    <glyph glyph-name="r" unicode="r" horiz-adv-x="459" 
d="M92 0q-2 21 -2.5 29.5t-0.5 18.5q0 21 2.5 50.5t6.5 63.5t8 67q5 36 9.5 68.5t7 57.5t2.5 37q0 17 -4.5 21.5t-9.5 4.5q-11 0 -23 -17t-25 -62l-55 16q5 21 14 48t25 51.5t39 40.5t56 16q32 0 58 -19t26 -72q0 -16 -2.5 -38t-7.5 -51h1q27 76 55.5 114.5t56.5 52t52 13.5
q38 0 61 -20.5t23 -55.5q0 -26 -18.5 -47t-48.5 -21q-22 0 -39 14t-16 38q-17 2 -34.5 -19.5t-33 -59t-28 -83.5t-20 -94t-7.5 -91q0 -13 1 -36.5t2 -35.5h-131z" />
    <glyph glyph-name="s" unicode="s" horiz-adv-x="446" 
d="M200 -11q-48 0 -88.5 14t-65.5 40.5t-25 61.5q0 31 18.5 50.5t45.5 19.5t44 -18t17 -44q0 -7 -1.5 -14.5t-4.5 -15.5q5 -10 26.5 -19t36.5 -9q44 0 61.5 19t17.5 43q0 19 -14.5 33.5t-37.5 28.5t-49 29q-47 27 -78 50t-45.5 48.5t-14.5 60.5t22 68t64.5 54.5t103.5 21.5
q40 0 78.5 -13t64 -37.5t25.5 -59.5q0 -26 -17 -46t-46 -20q-27 0 -43.5 18.5t-16.5 42.5q0 8 1.5 15t4.5 14q-8 11 -24.5 15.5t-30.5 4.5t-29.5 -6t-26.5 -17.5t-11 -28.5q0 -14 6.5 -24.5t26.5 -24t60 -37.5q33 -19 67.5 -41t58 -51.5t23.5 -71.5q0 -45 -27 -80t-73 -54.5
t-104 -19.5z" />
    <glyph glyph-name="t" unicode="t" horiz-adv-x="395" 
d="M253 651l-20 -151h125l-6 -69l-125 -2q-4 -36 -9 -77.5t-8.5 -81t-6 -71t-2.5 -48.5q0 -13 3 -28.5t13 -26.5t32 -11q8 0 23.5 4.5t33.5 17.5t33 41l51 -32q-34 -64 -83 -95.5t-105 -31.5q-55 0 -82.5 23t-36.5 60.5t-8 78.5q2 34 5 80.5t8 98t10 98.5l-80 -1l9 73
q74 0 109.5 39t49.5 112h67z" />
    <glyph glyph-name="u" unicode="u" horiz-adv-x="598" 
d="M211 -11q-42 0 -68.5 19t-39 53.5t-12.5 81.5q0 37 6.5 81l13 88t6.5 80q0 17 -5.5 21.5t-10.5 4.5q-11 0 -23 -17t-25 -62l-54 16q4 21 15.5 48t30.5 51.5t45 40.5t60 16q56 0 75.5 -30t19.5 -83q0 -30 -4 -67.5t-9 -76.5t-9 -73.5t-4 -57.5q0 -15 3 -24.5t9 -13.5
t16 -4q17 0 35.5 22t35.5 59.5t31 83t22.5 93t8.5 89.5q0 14 -0.5 37t-2.5 35h129q2 -21 2.5 -29.5t0.5 -18.5q0 -21 -2.5 -50.5t-6.5 -63.5t-9 -68q-3 -27 -6.5 -52t-6.5 -46.5t-4.5 -38t-1.5 -25.5q0 -16 4.5 -21t9.5 -5q11 0 23 17t25 62l54 -16q-4 -21 -13 -48
t-25 -51.5t-39 -40.5t-56 -16q-32 0 -58 19t-26 72q0 20 2 34t3 31h-1q-23 -60 -50 -94t-56 -48t-58 -14z" />
    <glyph glyph-name="v" unicode="v" horiz-adv-x="523" 
d="M361 511q32 0 56.5 -14.5t41 -39.5t25 -58t8.5 -70q0 -52 -18 -111t-52.5 -111t-84 -85t-112.5 -33q-45 0 -73 19t-41 54t-13 83q0 26 2.5 60.5t5.5 70.5t5.5 67t2.5 49q0 17 -5.5 21.5t-10.5 4.5q-11 0 -23 -17t-25 -62l-54 16q4 21 15.5 48t30.5 51.5t45 40.5t60 16
q39 0 59.5 -16t28.5 -42t8 -58t-2.5 -70t-6.5 -76.5t-6.5 -71.5t-2.5 -56q0 -10 2.5 -23.5t10 -23.5t23.5 -10q27 1 54.5 21t51 55t37.5 81.5t14 98.5q0 11 -2 22.5t-5.5 22t-8 19t-9.5 13.5q-9 -7 -20.5 -12.5t-25.5 -5.5q-20 0 -41 14.5t-21 47.5q0 14 7 30.5t24 28
t45 11.5z" />
    <glyph glyph-name="w" unicode="w" horiz-adv-x="795" 
d="M634 511q32 0 56.5 -14.5t41 -39.5t25 -58t8.5 -70q0 -53 -21 -112t-59 -111t-89 -84.5t-112 -32.5q-43 0 -67 20t-31.5 53.5t-2.5 72.5q-14 -54 -40.5 -86t-59.5 -46t-67 -14q-64 0 -93 41.5t-29 114.5q0 26 3.5 60.5t8 70.5t8 67t3.5 49q0 17 -5.5 21.5t-10.5 4.5
q-12 0 -24 -17t-25 -62l-54 16q4 21 15.5 48t30.5 51.5t45 40.5t60 16q39 0 60 -16t29 -42t8 -58t-3.5 -70t-8.5 -76.5t-8.5 -71.5t-3.5 -56q0 -10 1.5 -23.5t7.5 -23.5t19 -10q29 0 50 26t35.5 67.5t23 90.5t12 96.5t3.5 83.5q0 14 -1 37t-2 35h129q2 -21 2 -29.5v-18.5
q0 -32 -3.5 -79t-8 -96.5t-8 -91t-3.5 -64.5q0 -16 8.5 -36.5t31.5 -20.5q26 0 55.5 20.5t56 56t43.5 82t17 97.5q0 11 -2 22.5t-5.5 22t-8 19t-9.5 13.5q-9 -7 -20.5 -12.5t-25.5 -5.5q-20 0 -41 14.5t-21 47.5q0 14 7 30.5t24 28t45 11.5z" />
    <glyph glyph-name="x" unicode="x" horiz-adv-x="543" 
d="M96 -11q-37 0 -58.5 19t-21.5 50t19 50.5t44 19.5q24 0 38 -11.5t18 -25.5q15 10 31.5 48t41.5 112q-16 42 -25.5 73t-22.5 60q-10 21 -17.5 27t-17.5 7q-13 1 -25.5 -14.5t-17.5 -60.5l-56 8q2 22 10.5 49t25 52.5t44 42t67.5 16.5q41 0 62.5 -24t35.5 -63
q6 -15 10.5 -27.5t11.5 -40.5q21 54 40.5 85t37 46t33 19.5t28.5 4.5q36 0 53 -19.5t17 -48.5q0 -25 -18.5 -44t-44.5 -19q-18 0 -29.5 6.5t-18.5 14.5q-9 -7 -18 -20.5t-21 -38.5t-30 -68q10 -28 23 -61t27.5 -63t28.5 -49t26 -19q14 0 23.5 14.5t14.5 60.5l56 -8
q-2 -22 -9 -49t-22 -52.5t-41 -42t-66 -16.5q-25 0 -43 8t-33 27t-31 52.5t-38 84.5h-1q-19 -56 -37 -90.5t-35 -52t-34.5 -23.5t-34.5 -6z" />
    <glyph glyph-name="y" unicode="y" horiz-adv-x="561" 
d="M123 -271q-46 0 -70.5 22t-24.5 56q0 32 20.5 51t43.5 19q53 0 61 -54q2 -1 5 -1h5q17 0 35.5 13t35.5 32t30.5 38.5t19.5 33.5q-7 48 -23 103.5t-36.5 113t-42.5 111t-41 97.5q-7 16 -18.5 35t-28.5 19q-13 0 -26.5 -14t-18.5 -61l-56 8q2 22 10.5 49t26 52.5t45 42
t67.5 16.5q33 0 56.5 -15.5t40 -39.5t26.5 -49q14 -34 34 -88t38.5 -117.5t29.5 -128.5h1q21 46 35 89t22.5 82t10.5 72q1 11 0 34.5t-12 35.5q-4 -1 -7 -1h-7q-25 0 -43 17t-18 41q0 35 22 51.5t47 16.5q37 0 59.5 -21t32.5 -53t10 -66q0 -43 -14 -104t-39.5 -129.5
t-59.5 -135.5q-38 -73 -84 -135.5t-97 -100t-103 -37.5z" />
    <glyph glyph-name="z" unicode="z" horiz-adv-x="491" 
d="M61 -11l-43 40q23 33 56.5 77t70.5 89t68 81q33 39 57 62t45.5 42t47.5 43h-1q-40 -33 -68 -43.5t-51 -10.5q-21 0 -38.5 6.5t-34.5 12.5t-36 6q-20 0 -30.5 -15t-10.5 -36q0 -17 6 -34l-50 -17q-6 16 -9 35.5t-3 42.5q0 36 13.5 68t41 52.5t68.5 20.5q28 0 59 -7.5
t62.5 -15t59.5 -7.5q11 0 33.5 4.5t46.5 25.5l43 -40q-25 -32 -50 -63.5t-49.5 -63.5t-49.5 -64q-64 -81 -114 -125.5t-88 -76.5h1q41 33 71.5 42t53.5 9q25 0 43.5 -6.5t35 -12.5t35.5 -6t29 12.5t11 30.5q1 10 -1 21t-7 21l51 17q5 -16 9.5 -34.5t4.5 -41.5
q0 -35 -13.5 -67.5t-41 -53t-68.5 -20.5q-28 0 -61.5 7.5l-67 15t-62.5 7.5q-11 0 -31 -4.5t-44 -25.5z" />
    <glyph glyph-name="braceleft" unicode="{" horiz-adv-x="345" 
d="M356 760l-3 -66q-47 2 -73.5 -19.5t-38.5 -57.5t-15 -80q0 -7 0.5 -27t1.5 -45.5t2 -48.5t0 -36q-1 -52 -30.5 -79.5t-75.5 -44.5v-1q44 -19 69.5 -49t23.5 -80q0 -11 -3 -34.5t-7 -52.5t-7 -56t-3 -45q0 -36 10.5 -69t35.5 -54t68 -20l-4 -66h-24.5h-24.5
q-66 0 -104 28.5t-54.5 77.5t-16.5 111q0 11 2.5 38t6 59.5t6.5 62t3 44.5q1 31 -11 51t-47 20h-46l5 67h44q37 0 51 17.5t16 51.5v26t-0.5 51t-1 55t-0.5 38q0 72 19 124.5t62.5 80.5t113.5 28h25h25z" />
    <glyph glyph-name="bar" unicode="|" horiz-adv-x="234" 
d="M197 760l-58 -1031h-105l51 1031h112z" />
    <glyph glyph-name="braceright" unicode="}" horiz-adv-x="345" 
d="M-19 -271l3 66q47 -2 73.5 19.5t38.5 57.5t15 80q0 7 -0.5 27t-1.5 45.5t-2 48.5t0 36q1 52 30.5 79.5t75.5 44.5v1q-44 19 -69.5 49t-23.5 80q0 11 3 34.5t7 52.5t7 56t3 45q0 36 -10.5 69t-35.5 54t-68 20l4 66h24.5h24.5q66 0 104 -28.5t54.5 -77.5t16.5 -111
q0 -11 -2.5 -38t-6 -59.5t-6.5 -62t-3 -44.5q-1 -31 11 -51t47 -20h46l-5 -67h-44q-37 0 -51 -17.5t-16 -51.5v-26t0.5 -51t1 -55t0.5 -38q0 -72 -19 -124.5t-62.5 -80.5t-113.5 -28h-25h-25z" />
    <glyph glyph-name="asciitilde" unicode="../_.html" 
d="M366 201q-38 0 -63 11.5t-44.5 26t-40.5 26t-51 11.5q-40 0 -68.5 -14t-57.5 -34l6 118q33 26 62 39.5t68 13.5t63.5 -10.5t42 -24.5t36 -26t45.5 -14q36 -3 69 10.5t61 36.5l-6 -118q-22 -22 -52.5 -37t-69.5 -15z" />
    <glyph glyph-name="uni00A0" unicode="&#xa0;" horiz-adv-x="263" 
 />
    <glyph glyph-name="exclamdown" unicode="&#xa1;" horiz-adv-x="235" 
d="M89 -216q-27 0 -42.5 14t-21 34.5t-2.5 42.5l58 412h67l16 -412q1 -32 -18.5 -61.5t-56.5 -29.5zM119 360q-32 0 -50.5 23t-17.5 55q2 32 25 55t52 23t48.5 -23t18.5 -55q-2 -32 -25 -55t-51 -23z" />
    <glyph glyph-name="cent" unicode="&#xa2;" horiz-adv-x="488" 
d="M339 625l-12 -118q51 -10 83 -40.5t32 -75.5q0 -30 -17.5 -49t-46.5 -20q-34 -1 -48 20.5t-14 38.5q0 9 2.5 20.5t7.5 21.5q-4 9 -17 15.5t-30 6.5q-32 0 -53 -21.5t-32.5 -54.5t-16.5 -69.5t-6 -66.5q-2 -54 10 -87t32 -48t41 -17q19 -1 43 5.5t49 29t46 69.5l57 -28
q-37 -84 -83.5 -120.5t-98.5 -44.5l-14 -126h-96l13 131q-62 16 -99 67.5t-37 142.5q0 43 11.5 89.5t35.5 89t60 74t84 44.5l12 121h102z" />
    <glyph glyph-name="sterling" unicode="&#xa3;" horiz-adv-x="550" 
d="M77 -16q-31 0 -42.5 17t-10.5 39q2 29 28 52t63 36q22 39 22.5 81.5t-8.5 89.5l-79 -1l5 77h56q-4 22 -6 46.5t-1 53.5q4 77 36.5 131t82.5 82t105 28q62 0 98 -20.5t51 -49t13 -54.5q-1 -29 -19 -51t-50 -23q-24 -1 -38.5 9.5t-20 25t-5.5 26.5q1 13 6 27.5t15 25.5
q-4 6 -15.5 11t-28.5 5q-35 0 -57 -21.5t-32 -52.5t-12 -62q-2 -39 0 -73t6 -64h159l-4 -71l-147 -3q4 -33 -3.5 -67t-25 -63t-44.5 -47q29 12 49 16t37 4q20 0 36.5 -5t30.5 -12q22 -11 41 -22t39 -11q11 0 24.5 14t16.5 43h62q-7 -73 -38.5 -120t-86.5 -47q-33 0 -60.5 15
t-54.5 33q-23 14 -51 26.5t-54 13.5q-12 -37 -37 -62.5t-51 -25.5z" />
    <glyph glyph-name="currency" unicode="&#xa4;" horiz-adv-x="553" 
d="M113 27l-69 57l61 65q-24 47 -21 105q2 28 10.5 56t24.5 52l-56 69l73 57l47 -63q21 13 46 20.5t54 7.5t53.5 -7.5t43.5 -20.5l53 62l68 -59l-64 -69q14 -24 20 -50.5t4 -54.5q-1 -28 -9.5 -55t-22.5 -50l54 -65l-74 -57l-45 60q-22 -12 -47.5 -18.5t-54.5 -6.5t-54 6.5
t-45 18.5zM266 135q20 0 34 13.5t23 34.5t13.5 44t5.5 42q1 14 -1.5 33.5t-9.5 37.5t-19.5 30t-32.5 12q-19 0 -32.5 -12t-22.5 -30t-13 -37.5t-5 -33.5q-1 -19 0.5 -42t8 -44t19 -34.5t32.5 -13.5z" />
    <glyph glyph-name="yen" unicode="&#xa5;" horiz-adv-x="706" 
d="M214 0l3 66q21 1 37 5t25.5 19t12.5 48h-106l4 77h106l3 50l-109 -1l5 78l52 -1l-119 190q-14 23 -24 51t-9 44q-16 -1 -26.5 -1.5t-21.5 -1.5l4 77h292l-4 -66q-43 3 -64 -16.5t1 -60.5q17 -31 35 -62t35 -63q4 -7 12.5 -23.5t17.5 -34.5t14 -33h6q11 22 37 69t69 125
q6 11 16.5 28.5t21.5 35t20 27.5q-16 -1 -41 -1.5t-36 -1.5l4 77h221l-4 -66q-35 -5 -61 -28.5t-58 -78.5q-27 -46 -53.5 -93t-53.5 -94h70l-4 -74l-103 -1l-3 -51l105 -1l-3 -73l-105 -1q-1 -20 -3.5 -37.5t-4.5 -27.5q17 2 43.5 2.5t36.5 0.5l-4 -77h-289z" />
    <glyph glyph-name="brokenbar" unicode="&#xa6;" horiz-adv-x="249" 
d="M203 760l-24 -385h-104l18 385h110zM169 113l-24 -384h-103l17 384h110z" />
    <glyph glyph-name="section" unicode="&#xa7;" horiz-adv-x="527" 
d="M227 -228q-55 0 -95.5 19.5t-62 50.5t-20.5 63q2 29 19 51t46 23q24 1 37.5 -10t19 -25.5t4.5 -25.5q0 -22 -13 -41q5 -10 15 -18t24 -12t29 -4q31 0 52.5 12t32.5 30.5t12 38.5q2 31 -14.5 55t-42.5 43t-54 35t-50 31q-27 18 -51.5 38.5t-44 45t-30 55.5t-8.5 70
q2 40 25.5 85t60.5 79q-22 29 -28 54.5t-6 53.5q1 29 13 62t37.5 62.5t64.5 48t94 18.5t95.5 -20t62.5 -50.5t20 -63.5q-1 -28 -18.5 -49t-46.5 -23q-23 0 -37 10t-19.5 24t-4.5 25q0 11 3 21.5t10 20.5q-4 11 -14 18.5t-23 11.5t-28 4q-31 0 -52 -12.5t-32 -31.5t-13 -39
q-1 -34 15 -58.5t42 -43.5t54.5 -35.5t52.5 -34.5q47 -35 75.5 -64.5t41.5 -62.5t13 -81q0 -23 -11.5 -53t-31 -59.5t-43.5 -52.5q12 -19 24 -44.5t10 -61.5q-1 -29 -12.5 -61t-36 -59.5t-64.5 -45t-98 -17.5zM357 117q8 15 13 42t5 43q0 31 -15 55.5t-38.5 44.5t-52 37
t-55.5 33.5t-47 32.5q-8 -15 -13.5 -41t-5.5 -43q0 -31 15 -55.5t39 -44.5t52 -37.5t55.5 -33.5t47.5 -33z" />
    <glyph glyph-name="dieresis" unicode="&#xa8;" horiz-adv-x="415" 
d="M290 600q-26 0 -43.5 20t-17.5 50q0 33 21 57t49 24q27 0 43.5 -20.5t16.5 -49.5q0 -34 -20 -57.5t-49 -23.5zM116 600q-26 0 -43.5 20t-17.5 50q0 33 21 57t49 24q27 0 43.5 -20.5t16.5 -49.5q0 -34 -20 -57.5t-49 -23.5z" />
    <glyph glyph-name="copyright" unicode="&#xa9;" horiz-adv-x="890" 
d="M443 94q-69 0 -121.5 32.5t-80.5 88t-25 123.5q3 44 20 89.5t49 83t78.5 59.5t106.5 20q30 -1 59 -8.5t54 -26.5v31h72l-9 -175h-62q-4 60 -38 86t-74 26q-35 0 -66 -22.5t-51 -62t-23 -89.5q-2 -45 14.5 -84t49.5 -63.5t80 -25.5q35 -1 75 18t71 56l40 -41
q-36 -45 -76 -70t-77 -35t-66 -10zM428 -71q-92 0 -166 30.5t-126 86t-78 130.5t-22 164q5 86 40 161t94 132t136.5 89.5t166.5 32.5q90 0 163 -32.5t124.5 -90t77.5 -132.5t21 -161q-4 -85 -39.5 -159.5t-95 -130.5t-135 -88t-161.5 -32zM434 -14q77 0 140.5 28t110.5 77
t73.5 113t30.5 136t-16.5 136.5t-63 114t-103.5 78t-138 28.5q-76 0 -140.5 -28.5t-112.5 -78t-76 -114t-32 -136.5t16.5 -136t63 -113t105 -77t142.5 -28z" />
    <glyph glyph-name="ordfeminine" unicode="&#xaa;" horiz-adv-x="406" 
d="M243 716q18 0 50.5 -3.5t59.5 -9.5q-4 -24 -9.5 -60.5t-11 -75.5t-9 -71.5t-3.5 -49.5q0 -11 3 -15t7 -4q8 0 17.5 11t17.5 40l33 -10q-3 -18 -14.5 -42t-31.5 -41.5t-51 -17.5q-28 0 -43 13t-15 46q0 8 1.5 19t2.5 18h-1q-16 -37 -33 -58t-35 -29.5t-38 -8.5
q-34 0 -63.5 29t-29.5 89q0 68 23 120t67 81.5t106 29.5zM219 666q-18 -1 -33 -17t-24.5 -53t-12.5 -102q-1 -26 5.5 -41.5t19.5 -15.5q14 0 26.5 21.5t23 56t17.5 73.5t9 74q-4 2 -13.5 3.5t-17.5 0.5z" />
    <glyph glyph-name="guillemotleft" unicode="&#xab;" horiz-adv-x="489" 
d="M267 -13l-250 269l1 24l281 278l40 -44l-201 -247v-1l173 -238zM396 65l-160 194l1 23l182 199l40 -33l-112 -174v-1l92 -174z" />
    <glyph glyph-name="logicalnot" unicode="&#xac;" 
d="M397 149l4 117l-360 -2l6 98l449 -3l-11 -210h-88z" />
    <glyph glyph-name="uni00AD" unicode="&#xad;" horiz-adv-x="473" 
d="M424 370l-6 -98l-366 -3l5 101h367z" />
    <glyph glyph-name="registered" unicode="&#xae;" horiz-adv-x="890" 
d="M473 755q90 0 163 -32.5t124.5 -90t77.5 -132.5t21 -161q-4 -85 -39.5 -159.5t-95 -130.5t-135 -88t-161.5 -32q-92 0 -166 30.5t-126 86t-78 130.5t-22 164q5 86 40 161t94 132t136.5 89.5t166.5 32.5zM468 697q-76 0 -140.5 -28.5t-112.5 -78t-76 -114t-32 -136.5
t16.5 -136t63 -113t105 -77t142.5 -28q77 0 140.5 28t110.5 77t73.5 113t30.5 136t-16.5 136.5t-63 114t-103.5 78t-138 28.5zM244 162q23 2 36 10t15 49l13 253q1 20 3 36.5t3 24.5q-11 -1 -27 -1.5t-24 -0.5l3 52q31 0 62.5 0.5t62.5 0.5h62q59 0 101 -14t63 -45.5
t16 -85.5q-2 -28 -14.5 -54t-37 -45.5t-64.5 -30.5q13 -5 21.5 -17t16.5 -26q27 -47 40 -69t23 -29t28 -8l-2 -44h-103q-11 9 -23.5 25t-23.5 38q-27 50 -39 73t-15.5 30.5t-6.5 12.5h-19h-19l-4 -68q-1 -18 -2 -35.5t-2 -25.5q11 1 30 1t26 1l-3 -52h-199zM397 357
q9 -2 15 -2.5t13 -0.5q33 0 56 11t36 32t15 50q2 39 -13.5 56.5t-36 22t-34.5 4.5q-21 0 -31.5 -10.5t-12.5 -43.5z" />
    <glyph glyph-name="macron" unicode="&#xaf;" horiz-adv-x="378" 
d="M45 629l4 93h284l-4 -90z" />
    <glyph glyph-name="degree" unicode="&#xb0;" horiz-adv-x="384" 
d="M219 716q74 0 115.5 -46t38.5 -114q-2 -46 -27 -82t-63.5 -57.5t-83.5 -21.5q-49 0 -84 21.5t-53 57.5t-16 82q3 46 27.5 82t63 57t82.5 21zM213 648q-34 0 -58.5 -28.5t-24.5 -66.5t19.5 -63t54.5 -25q38 0 61.5 28t23.5 67q0 40 -20 64t-56 24z" />
    <glyph glyph-name="plusminus" unicode="&#xb1;" 
d="M50 399h446l-4 -78h-446zM322 583l-24 -446h-78l24 446h78zM50 78h446l-4 -78h-446z" />
    <glyph glyph-name="uni00B2" unicode="&#xb2;" horiz-adv-x="376" 
d="M208 716q33 0 62.5 -9.5t48 -31t18.5 -56.5q0 -33 -14 -56.5t-36.5 -43t-50.5 -40t-56 -47.5q-13 -13 -22.5 -23.5t-16.5 -24.5l121 -2q9 0 15.5 2.5t11 10.5t4.5 24h47l-11 -117h-279q3 46 18.5 78t39.5 57t52 48q44 38 57 71t13 52q0 27 -13 39.5t-33 12.5
q-10 0 -20.5 -4.5t-15.5 -10.5q8 -6 10 -16t2 -16q0 -13 -11.5 -31.5t-40.5 -18.5q-22 0 -33.5 14.5t-11.5 35.5t16.5 45t49 41t79.5 17z" />
    <glyph glyph-name="uni00B3" unicode="&#xb3;" horiz-adv-x="365" 
d="M171 292q-62 0 -95.5 30t-32.5 67q2 22 16.5 39t36.5 18q28 1 37.5 -15.5t8.5 -34.5q0 -5 -4 -16.5t-12 -18.5q7 -10 21 -13.5t22 -3.5q31 0 50 20t21 49q1 21 -8.5 37.5t-27.5 25.5t-45 9q-7 0 -17.5 -0.5t-16.5 -0.5l3 54q9 -1 18 -1.5t17 -0.5q25 0 40.5 11t23.5 27
t8 31q2 27 -12.5 43t-39.5 16q-13 0 -22.5 -4.5t-13.5 -7.5q8 -7 10.5 -17.5t1.5 -15.5q-1 -13 -12 -30.5t-39 -16.5q-22 1 -34.5 15t-11.5 36q1 19 16 40.5t46 37t78 15.5q57 0 94.5 -26t34.5 -79q-1 -30 -25.5 -55.5t-54.5 -33.5q47 -9 68.5 -35t21.5 -64q-1 -55 -44 -93
t-126 -38z" />
    <glyph glyph-name="acute" unicode="&#xb4;" horiz-adv-x="292" 
d="M89 565l-44 41l89 140q11 17 28 27t35 10t32 -13q16 -14 17.5 -32.5t-7 -36.5t-23.5 -30z" />
    <glyph glyph-name="uni00B5" unicode="&#xb5;" horiz-adv-x="597" 
d="M115 -271q-39 0 -52 29t-11 75l35 667h122l-14 -272q-2 -47 3.5 -81.5t21.5 -53t44 -18.5q23 0 44.5 11.5t37.5 29.5l20 384h122l-20 -358v-20t4.5 -21.5t17.5 -9.5q7 0 16 4t21 14l32 -42q-12 -16 -32 -32.5t-44 -28t-49 -11.5q-29 0 -49.5 15t-27.5 49h-1
q-48 -70 -106 -70q-32 0 -55 17t-37 43h-1q0 -54 7 -103t13.5 -85.5t5.5 -55.5q-1 -28 -16.5 -52t-51.5 -24z" />
    <glyph glyph-name="paragraph" unicode="&#xb6;" horiz-adv-x="557" 
d="M129 -255l37 656q-32 6 -60.5 22t-45 46.5t-14.5 79.5q3 52 27 85t60 49.5t74 16.5h289l-52 -955h-110l48 886l-94 -1l-48 -885h-111z" />
    <glyph glyph-name="periodcentered" unicode="&#xb7;" horiz-adv-x="227" 
d="M120 419q31 0 50.5 -23t17.5 -55q-1 -32 -22 -55t-53 -23q-33 0 -52 23t-18 55q2 32 25 55t52 23z" />
    <glyph glyph-name="cedilla" unicode="&#xb8;" horiz-adv-x="330" 
d="M50 -259l-5 52q12 2 32.5 6.5t41.5 12t35.5 18.5t15.5 26q1 17 -12 22t-30 1t-27 -12l-37 16l38 127h76l-33 -79q14 7 35.5 11.5t34.5 4.5q31 -1 51 -17.5t18 -52.5q-2 -35 -27.5 -59t-62.5 -39.5t-76 -24.5t-68 -13z" />
    <glyph glyph-name="uni00B9" unicode="&#xb9;" horiz-adv-x="276" 
d="M68 301l2 38q19 1 30 8.5t13 41.5l12 230l-66 -37l-18 39l148 95h35l-17 -321q-1 -15 -2 -29t-2 -22q9 1 22.5 1h20.5l-3 -44h-175z" />
    <glyph glyph-name="ordmasculine" unicode="&#xba;" horiz-adv-x="368" 
d="M217 716q56 0 96.5 -40t40.5 -112q0 -51 -20.5 -97t-58.5 -74.5t-90 -28.5q-46 0 -76.5 21.5t-46 57t-15.5 77.5q0 53 21 97.5t59.5 71.5t89.5 27zM209 666q-25 0 -41 -38t-16 -98q0 -34 4 -59.5t13.5 -39.5t23.5 -14q19 0 31 18.5t18.5 48.5t6.5 66q0 37 -4 62.5
t-12.5 39.5t-23.5 14z" />
    <glyph glyph-name="guillemotright" unicode="&#xbb;" horiz-adv-x="490" 
d="M218 554l250 -269l-1 -24l-281 -278l-40 44l201 247v1l-173 238zM89 476l160 -194l-1 -23l-182 -199l-40 33l112 174v1l-92 174z" />
    <glyph glyph-name="onequarter" unicode="&#xbc;" horiz-adv-x="794" 
d="M68 301l2 38q19 1 30 8.5t13 41.5l12 230l-66 -37l-18 39l148 95h35l-17 -321q-1 -15 -2 -29t-2 -22q9 1 22.5 1h20.5l-3 -44h-175zM596 716l64 -51l-480 -681l-61 47zM549 0l2 38q19 1 30.5 8.5t13.5 41.5v13l-151 1l2 58l227 255h34l-13 -259l59 -1l-3 -55h-59l-5 -57
l43 1l-3 -44h-177zM600 157l11 120h-1l-97 -118z" />
    <glyph glyph-name="onehalf" unicode="&#xbd;" horiz-adv-x="833" 
d="M68 301l2 38q19 1 30 8.5t13 41.5l12 230l-66 -37l-18 39l148 95h35l-17 -321q-1 -15 -2 -29t-2 -22q9 1 22.5 1h20.5l-3 -44h-175zM596 716l64 -51l-480 -681l-61 47zM659 414q33 0 62.5 -9.5t48 -31t18.5 -56.5q0 -33 -14 -56.5t-36.5 -43t-50.5 -40t-56 -47.5
q-13 -13 -22.5 -23.5t-16.5 -24.5l121 -2q9 0 15.5 2.5t11 10.5t4.5 24h47l-11 -117h-279q3 46 18.5 78t39.5 57t52 48q44 38 57 71t13 52q0 27 -13 39.5t-33 12.5q-10 0 -20.5 -4.5t-15.5 -10.5q8 -6 10 -16t2 -16q0 -13 -11.5 -31.5t-40.5 -18.5q-22 0 -33.5 14.5
t-11.5 35.5t16.5 45t49 41t79.5 17z" />
    <glyph glyph-name="threequarters" unicode="&#xbe;" horiz-adv-x="889" 
d="M171 292q-62 0 -95.5 30t-32.5 67q2 22 16.5 39t36.5 18q28 1 37.5 -15.5t8.5 -34.5q0 -5 -4 -16.5t-12 -18.5q7 -10 21 -13.5t22 -3.5q31 0 50 20t21 49q1 21 -8.5 37.5t-27.5 25.5t-45 9q-7 0 -17.5 -0.5t-16.5 -0.5l3 54q9 -1 18 -1.5t17 -0.5q25 0 40.5 11t23.5 27
t8 31q2 27 -12.5 43t-39.5 16q-13 0 -22.5 -4.5t-13.5 -7.5q8 -7 10.5 -17.5t1.5 -15.5q-1 -13 -12 -30.5t-39 -16.5q-22 1 -34.5 15t-11.5 36q1 19 16 40.5t46 37t78 15.5q57 0 94.5 -26t34.5 -79q-1 -30 -25.5 -55.5t-54.5 -33.5q47 -9 68.5 -35t21.5 -64q-1 -55 -44 -93
t-126 -38zM691 716l64 -51l-480 -681l-61 47zM644 0l2 38q19 1 30.5 8.5t13.5 41.5v13l-151 1l2 58l227 255h34l-13 -259l59 -1l-3 -55h-59l-5 -57l43 1l-3 -44h-177zM695 157l11 120h-1l-97 -118z" />
    <glyph glyph-name="questiondown" unicode="&#xbf;" horiz-adv-x="478" 
d="M249 319q21 0 41 -7t31.5 -22t10.5 -40q-1 -17 -8 -32t-26 -36.5t-54 -54.5q-25 -23 -44.5 -46.5t-32 -51.5t-14.5 -66q-2 -31 5 -55.5t25 -39t52 -14.5q16 0 31.5 5t27.5 12t19 15q-10 10 -14 26.5t-2 27.5q1 13 9.5 28.5t24 25.5t39.5 9q31 -2 45.5 -21.5t13.5 -49.5
q-2 -36 -31 -70t-77.5 -56t-108.5 -22q-79 0 -124.5 23t-63.5 59.5t-16 76.5q2 42 25 76.5t55.5 63.5t65 52.5t54.5 44.5t23 40q1 13 -8.5 21.5t-30.5 8.5q-6 0 -13.5 -1t-16.5 -3l-13 51q25 13 53 17.5t47 4.5zM249 516q29 0 49 -23t19 -55q-2 -32 -25 -55t-52 -23
q-31 0 -50.5 23t-17.5 55q1 32 24.5 55t52.5 23z" />
    <glyph glyph-name="Agrave" unicode="&#xc0;" horiz-adv-x="667" 
d="M384 718l185 -545q5 -15 13.5 -45.5t9.5 -53.5l57 3l-3 -77h-268l4 66q28 0 39.5 11.5t11 31.5t-8.5 45l-17 55l-219 -4l-19 -47q-5 -13 -15.5 -38.5t-20.5 -42.5l74 3l-5 -80h-214l4 69q28 0 45.5 16t30.5 42t26 56l223 535h67zM315 542q-4 -17 -16 -51t-31 -81
l-51 -130h168l-39 125q-10 36 -19 72.5t-12 64.5zM395 770l-141 84q-15 10 -26 24.5t-12 31.5t12 33q13 17 30.5 19.5t35.5 -5t31 -21.5l109 -117z" />
    <glyph glyph-name="Aacute" unicode="&#xc1;" horiz-adv-x="667" 
d="M384 718l185 -545q5 -15 13.5 -45.5t9.5 -53.5l57 3l-3 -77h-268l4 66q28 0 39.5 11.5t11 31.5t-8.5 45l-17 55l-219 -4l-19 -47q-5 -13 -15.5 -38.5t-20.5 -42.5l74 3l-5 -80h-214l4 69q28 0 45.5 16t30.5 42t26 56l223 535h67zM315 542q-4 -17 -16 -51t-31 -81
l-51 -130h168l-39 125q-10 36 -19 72.5t-12 64.5zM315 770l-34 48l122 118q15 14 33 21.5t35.5 5t28.5 -19.5q12 -17 9 -34t-15 -31t-29 -24z" />
    <glyph glyph-name="Acircumflex" unicode="&#xc2;" horiz-adv-x="667" 
d="M384 718l185 -545q5 -15 13.5 -45.5t9.5 -53.5l57 3l-3 -77h-268l4 66q28 0 39.5 11.5t11 31.5t-8.5 45l-17 55l-219 -4l-19 -47q-5 -13 -15.5 -38.5t-20.5 -42.5l74 3l-5 -80h-214l4 69q28 0 45.5 16t30.5 42t26 56l223 535h67zM315 542q-4 -17 -16 -51t-31 -81
l-51 -130h168l-39 125q-10 36 -19 72.5t-12 64.5zM535 779l-179 88l-193 -86l-19 40l212 150h19l188 -150z" />
    <glyph glyph-name="Atilde" unicode="&#xc3;" horiz-adv-x="667" 
d="M384 718l185 -545q5 -15 13.5 -45.5t9.5 -53.5l57 3l-3 -77h-268l4 66q28 0 39.5 11.5t11 31.5t-8.5 45l-17 55l-219 -4l-19 -47q-5 -13 -15.5 -38.5t-20.5 -42.5l74 3l-5 -80h-214l4 69q28 0 45.5 16t30.5 42t26 56l223 535h67zM315 542q-4 -17 -16 -51t-31 -81
l-51 -130h168l-39 125q-10 36 -19 72.5t-12 64.5zM285 848q-19 0 -44 -9.5t-45 -39.5l-51 32q23 56 61.5 81t74.5 25q25 0 44 -7.5t35 -17.5t32.5 -17.5t35.5 -7.5q20 0 46 17t40 45l52 -27q-18 -51 -41 -78t-47 -36.5t-45 -9.5q-23 0 -41.5 7.5t-35 17.5t-33.5 17.5
t-38 7.5z" />
    <glyph glyph-name="Adieresis" unicode="&#xc4;" horiz-adv-x="667" 
d="M384 718l185 -545q5 -15 13.5 -45.5t9.5 -53.5l57 3l-3 -77h-268l4 66q28 0 39.5 11.5t11 31.5t-8.5 45l-17 55l-219 -4l-19 -47q-5 -13 -15.5 -38.5t-20.5 -42.5l74 3l-5 -80h-214l4 69q28 0 45.5 16t30.5 42t26 56l223 535h67zM315 542q-4 -17 -16 -51t-31 -81
l-51 -130h168l-39 125q-10 36 -19 72.5t-12 64.5zM264 797q-25 0 -42.5 20.5t-17.5 50.5q0 33 21 57t49 24q26 0 42.5 -21t16.5 -50q0 -32 -20 -56.5t-49 -24.5zM439 797q-26 0 -43 20.5t-17 50.5q0 33 20.5 57t48.5 24q27 0 43 -21t16 -50q0 -33 -19.5 -57t-48.5 -24z" />
    <glyph glyph-name="Aring" unicode="&#xc5;" horiz-adv-x="667" 
d="M384 718l185 -545q5 -15 13.5 -45.5t9.5 -53.5l57 3l-3 -77h-268l4 66q28 0 39.5 11.5t11 31.5t-8.5 45l-17 55l-219 -4l-19 -47q-5 -13 -15.5 -38.5t-20.5 -42.5l74 3l-5 -80h-214l4 69q28 0 45.5 16t30.5 42t26 56l223 535h67zM315 542q-4 -17 -16 -51t-31 -81
l-51 -130h168l-39 125q-10 36 -19 72.5t-12 64.5zM356 751q-32 0 -63 13.5t-51 41.5t-20 71q0 39 20 68t50.5 45t62.5 16t62.5 -13.5t51 -41.5t20.5 -72q0 -40 -20 -69t-50.5 -44t-62.5 -15zM359 802q17 0 30 16.5t13 48.5q0 42 -12 65.5t-35 23.5q-25 0 -35.5 -23.5
t-10.5 -47.5q0 -39 14 -61t36 -22z" />
    <glyph glyph-name="AE" unicode="&#xc6;" horiz-adv-x="931" 
d="M-24 0l3 66q24 0 45.5 16.5t41.5 41t38 47.5l347 454q-16 0 -40.5 -0.5t-35.5 -1.5l4 77h498l-4 -194h-66q3 55 -14.5 83t-45 37.5t-55.5 8.5l-36 -1q-21 0 -36 -5.5t-24 -24t-11 -57.5l-8 -150h118v29.5v30.5v27h77l-13 -243h-66q3 42 -9.5 60.5t-34.5 23.5t-49 4
q-7 0 -13.5 -0.5t-13.5 -0.5l-8 -164q-1 -27 -3.5 -51t-5.5 -37h134q30 0 59 13.5t48.5 45t22.5 85.5h66l-18 -220h-525l3 66q23 1 39 6t25.5 23t11.5 58l2 54q-46 -1 -97 -2.5t-98 -2.5l-38 -51q-17 -23 -33.5 -43.5t-33.5 -32.5v-1l80 3l-4 -77h-224zM281 276h147l17 225
h-1q-12 -20 -21.5 -34t-21 -30t-33.5 -45z" />
    <glyph glyph-name="Ccedilla" unicode="&#xc7;" horiz-adv-x="690" 
d="M408 716q39 0 84.5 -12.5t84.5 -36.5h1l-1 42h77l-12 -233h-66q-9 83 -49 127.5t-110 44.5q-52 0 -92.5 -24t-68.5 -65.5t-43.5 -93t-18.5 -105.5q-4 -86 17.5 -153.5t67 -106.5t112.5 -40q60 -1 125 28.5t116 95.5l39 -40q-52 -67 -107.5 -101.5t-107.5 -46.5t-94 -12
q-77 0 -138.5 27.5t-104.5 76t-64 113t-17 139.5q4 68 29.5 135t72 121.5t114 87t154.5 32.5zM269 -275l-5 55q12 2 32.5 8t41.5 15.5t35.5 22.5t15.5 28q1 14 -6.5 19.5t-18.5 5.5t-23 -4.5t-20 -10.5l-41 15l38 131h80l-33 -77q14 6 35.5 11t34.5 4q31 -1 52.5 -19.5
t19.5 -53.5t-28 -61.5t-64 -44.5t-77.5 -29t-68.5 -15z" />
    <glyph glyph-name="Egrave" unicode="&#xc8;" horiz-adv-x="623" 
d="M570 700l-5 -194h-65q3 55 -15 83t-45.5 37.5t-54.5 8.5l-36 -1q-21 0 -36.5 -5.5t-24.5 -24t-11 -57.5l-7 -150h117v29.5v30.5v27h77l-12 -243h-66q2 42 -10.5 60.5t-34.5 23.5t-49 4l-26 -1l-9 -164q-1 -27 -3.5 -51t-4.5 -37h134q30 0 58.5 13.5t48 45t22.5 85.5h66
l-17 -220h-526l4 66q22 1 38 6t25.5 23t11.5 58l20 383q2 27 4.5 52t4.5 38q-16 -1 -40 -1.5t-35 -1.5l4 77h498zM392 770l-141 84q-15 10 -26 24.5t-12 31.5t12 33q13 17 30.5 19.5t35.5 -5t31 -21.5l109 -117z" />
    <glyph glyph-name="Eacute" unicode="&#xc9;" horiz-adv-x="623" 
d="M570 700l-5 -194h-65q3 55 -15 83t-45.5 37.5t-54.5 8.5l-36 -1q-21 0 -36.5 -5.5t-24.5 -24t-11 -57.5l-7 -150h117v29.5v30.5v27h77l-12 -243h-66q2 42 -10.5 60.5t-34.5 23.5t-49 4l-26 -1l-9 -164q-1 -27 -3.5 -51t-4.5 -37h134q30 0 58.5 13.5t48 45t22.5 85.5h66
l-17 -220h-526l4 66q22 1 38 6t25.5 23t11.5 58l20 383q2 27 4.5 52t4.5 38q-16 -1 -40 -1.5t-35 -1.5l4 77h498zM312 770l-34 48l122 118q15 14 33 21.5t35.5 5t28.5 -19.5q12 -17 9 -34t-15 -31t-29 -24z" />
    <glyph glyph-name="Ecircumflex" unicode="&#xca;" horiz-adv-x="623" 
d="M570 700l-5 -194h-65q3 55 -15 83t-45.5 37.5t-54.5 8.5l-36 -1q-21 0 -36.5 -5.5t-24.5 -24t-11 -57.5l-7 -150h117v29.5v30.5v27h77l-12 -243h-66q2 42 -10.5 60.5t-34.5 23.5t-49 4l-26 -1l-9 -164q-1 -27 -3.5 -51t-4.5 -37h134q30 0 58.5 13.5t48 45t22.5 85.5h66
l-17 -220h-526l4 66q22 1 38 6t25.5 23t11.5 58l20 383q2 27 4.5 52t4.5 38q-16 -1 -40 -1.5t-35 -1.5l4 77h498zM532 779l-179 88l-193 -86l-19 40l212 150h19l188 -150z" />
    <glyph glyph-name="Edieresis" unicode="&#xcb;" horiz-adv-x="623" 
d="M570 700l-5 -194h-65q3 55 -15 83t-45.5 37.5t-54.5 8.5l-36 -1q-21 0 -36.5 -5.5t-24.5 -24t-11 -57.5l-7 -150h117v29.5v30.5v27h77l-12 -243h-66q2 42 -10.5 60.5t-34.5 23.5t-49 4l-26 -1l-9 -164q-1 -27 -3.5 -51t-4.5 -37h134q30 0 58.5 13.5t48 45t22.5 85.5h66
l-17 -220h-526l4 66q22 1 38 6t25.5 23t11.5 58l20 383q2 27 4.5 52t4.5 38q-16 -1 -40 -1.5t-35 -1.5l4 77h498zM261 797q-25 0 -42.5 20.5t-17.5 50.5q0 33 21 57t49 24q26 0 42.5 -21t16.5 -50q0 -32 -20 -56.5t-49 -24.5zM436 797q-26 0 -43 20.5t-17 50.5q0 33 20.5 57
t48.5 24q27 0 43 -21t16 -50q0 -33 -19.5 -57t-48.5 -24z" />
    <glyph glyph-name="Igrave" unicode="&#xcc;" horiz-adv-x="384" 
d="M356 700l-3 -66q-22 -1 -38.5 -6t-26 -22.5t-11.5 -58.5l-20 -383q-1 -27 -3.5 -52t-4.5 -38q16 2 40.5 2.5t34.5 0.5l-4 -77h-285l4 66q22 1 38 6t25.5 23t11.5 58l20 383q2 27 4.5 52t4.5 38q-16 -1 -40 -1.5t-35 -1.5l4 77h284zM275 770l-141 84q-15 10 -26 24.5
t-12 31.5t12 33q13 17 30.5 19.5t35.5 -5t31 -21.5l109 -117z" />
    <glyph glyph-name="Iacute" unicode="&#xcd;" horiz-adv-x="384" 
d="M356 700l-3 -66q-22 -1 -38.5 -6t-26 -22.5t-11.5 -58.5l-20 -383q-1 -27 -3.5 -52t-4.5 -38q16 2 40.5 2.5t34.5 0.5l-4 -77h-285l4 66q22 1 38 6t25.5 23t11.5 58l20 383q2 27 4.5 52t4.5 38q-16 -1 -40 -1.5t-35 -1.5l4 77h284zM195 770l-34 48l122 118q15 14 33 21.5
t35.5 5t28.5 -19.5q12 -17 9 -34t-15 -31t-29 -24z" />
    <glyph glyph-name="Icircumflex" unicode="&#xce;" horiz-adv-x="384" 
d="M356 700l-3 -66q-22 -1 -38.5 -6t-26 -22.5t-11.5 -58.5l-20 -383q-1 -27 -3.5 -52t-4.5 -38q16 2 40.5 2.5t34.5 0.5l-4 -77h-285l4 66q22 1 38 6t25.5 23t11.5 58l20 383q2 27 4.5 52t4.5 38q-16 -1 -40 -1.5t-35 -1.5l4 77h284zM352 768l-123 99l-139 -96l-36 47
l175 153h15l151 -157z" />
    <glyph glyph-name="Idieresis" unicode="&#xcf;" horiz-adv-x="384" 
d="M356 700l-3 -66q-22 -1 -38.5 -6t-26 -22.5t-11.5 -58.5l-20 -383q-1 -27 -3.5 -52t-4.5 -38q16 2 40.5 2.5t34.5 0.5l-4 -77h-285l4 66q22 1 38 6t25.5 23t11.5 58l20 383q2 27 4.5 52t4.5 38q-16 -1 -40 -1.5t-35 -1.5l4 77h284zM144 797q-25 0 -42.5 20.5t-17.5 50.5
q0 33 21 57t49 24q26 0 42.5 -21t16.5 -50q0 -32 -20 -56.5t-49 -24.5zM319 797q-26 0 -43 20.5t-17 50.5q0 33 20.5 57t48.5 24q27 0 43 -21t16 -50q0 -33 -19.5 -57t-48.5 -24z" />
    <glyph glyph-name="Eth" unicode="&#xd0;" horiz-adv-x="756" 
d="M36 0l4 66q22 1 38 6t25.5 23t11.5 58l8 151l-99 -2l5 98h99l7 136q2 27 4.5 52t4.5 38q-16 -1 -40 -1.5t-35 -1.5l4 77l289 1q99 0 169 -29.5t113.5 -79.5t63 -111.5t16.5 -123.5q-3 -61 -27.5 -124t-73 -115.5t-123.5 -85t-180 -32.5h-284zM345 73q73 0 121 38t73 98.5
t28 126.5q8 153 -49.5 224t-161.5 74q-24 1 -41 -4.5t-26 -23.5t-11 -57l-8 -149h102l-5 -91l-102 -2l-7 -143q-1 -27 -3.5 -52t-4.5 -38q10 1 27.5 0.5t36.5 -1t31 -0.5z" />
    <glyph glyph-name="Ntilde" unicode="&#xd1;" horiz-adv-x="772" 
d="M566 -10l-298 411q-12 17 -25 36t-26 39h-1l-14 -312q-1 -27 -4 -52t-5 -38q17 2 41 2.5t35 0.5l-5 -77h-228l4 66q23 1 39 6t25.5 23t11.5 58l17 383q2 27 4.5 52t4.5 38q-16 -1 -40.5 -1.5t-35.5 -1.5l5 77h157l285 -387q23 -32 38.5 -55.5t26.5 -40.5h1l16 319
q2 27 4.5 52t4.5 38q-16 -1 -40.5 -1.5t-35.5 -1.5l5 77h227l-3 -66q-23 -1 -39 -6t-25.5 -22.5t-11.5 -58.5l-30 -557h-85zM349 848q-19 0 -44 -9.5t-45 -39.5l-51 32q23 56 61.5 81t74.5 25q25 0 44 -7.5t35 -17.5t32.5 -17.5t35.5 -7.5q20 0 46 17t40 45l52 -27
q-18 -51 -41 -78t-47 -36.5t-45 -9.5q-23 0 -41.5 7.5t-35 17.5t-33.5 17.5t-38 7.5z" />
    <glyph glyph-name="Ograve" unicode="&#xd2;" horiz-adv-x="762" 
d="M406 716q91 0 154.5 -33t102 -87.5t54.5 -118.5t13 -127q-3 -62 -27.5 -126t-70 -118.5t-112 -88t-155.5 -33.5q-95 0 -159.5 32t-102 85.5t-52.5 118.5t-11 130q3 63 27 127.5t70 118.5t113 87t156 33zM389 648q-51 -1 -87.5 -28t-59.5 -70t-34.5 -92.5t-13.5 -95.5
q-3 -47 4.5 -100.5t28.5 -101.5t58 -78t94 -30q52 0 88.5 26.5t59.5 68.5t35 91t14 95q3 69 -6 127t-32 100.5t-60 65.5t-89 22zM448 770l-141 84q-15 10 -26 24.5t-12 31.5t12 33q13 17 30.5 19.5t35.5 -5t31 -21.5l109 -117z" />
    <glyph glyph-name="Oacute" unicode="&#xd3;" horiz-adv-x="762" 
d="M406 716q91 0 154.5 -33t102 -87.5t54.5 -118.5t13 -127q-3 -62 -27.5 -126t-70 -118.5t-112 -88t-155.5 -33.5q-95 0 -159.5 32t-102 85.5t-52.5 118.5t-11 130q3 63 27 127.5t70 118.5t113 87t156 33zM389 648q-51 -1 -87.5 -28t-59.5 -70t-34.5 -92.5t-13.5 -95.5
q-3 -47 4.5 -100.5t28.5 -101.5t58 -78t94 -30q52 0 88.5 26.5t59.5 68.5t35 91t14 95q3 69 -6 127t-32 100.5t-60 65.5t-89 22zM368 770l-34 48l122 118q15 14 33 21.5t35.5 5t28.5 -19.5q12 -17 9 -34t-15 -31t-29 -24z" />
    <glyph glyph-name="Ocircumflex" unicode="&#xd4;" horiz-adv-x="762" 
d="M406 716q91 0 154.5 -33t102 -87.5t54.5 -118.5t13 -127q-3 -62 -27.5 -126t-70 -118.5t-112 -88t-155.5 -33.5q-95 0 -159.5 32t-102 85.5t-52.5 118.5t-11 130q3 63 27 127.5t70 118.5t113 87t156 33zM389 648q-51 -1 -87.5 -28t-59.5 -70t-34.5 -92.5t-13.5 -95.5
q-3 -47 4.5 -100.5t28.5 -101.5t58 -78t94 -30q52 0 88.5 26.5t59.5 68.5t35 91t14 95q3 69 -6 127t-32 100.5t-60 65.5t-89 22zM588 779l-179 88l-193 -86l-19 40l212 150h19l188 -150z" />
    <glyph glyph-name="Otilde" unicode="&#xd5;" horiz-adv-x="762" 
d="M406 716q91 0 154.5 -33t102 -87.5t54.5 -118.5t13 -127q-3 -62 -27.5 -126t-70 -118.5t-112 -88t-155.5 -33.5q-95 0 -159.5 32t-102 85.5t-52.5 118.5t-11 130q3 63 27 127.5t70 118.5t113 87t156 33zM389 648q-51 -1 -87.5 -28t-59.5 -70t-34.5 -92.5t-13.5 -95.5
q-3 -47 4.5 -100.5t28.5 -101.5t58 -78t94 -30q52 0 88.5 26.5t59.5 68.5t35 91t14 95q3 69 -6 127t-32 100.5t-60 65.5t-89 22zM338 848q-19 0 -44 -9.5t-45 -39.5l-51 32q23 56 61.5 81t74.5 25q25 0 44 -7.5t35 -17.5t32.5 -17.5t35.5 -7.5q20 0 46 17t40 45l52 -27
q-18 -51 -41 -78t-47 -36.5t-45 -9.5q-23 0 -41.5 7.5t-35 17.5t-33.5 17.5t-38 7.5z" />
    <glyph glyph-name="Odieresis" unicode="&#xd6;" horiz-adv-x="762" 
d="M406 716q91 0 154.5 -33t102 -87.5t54.5 -118.5t13 -127q-3 -62 -27.5 -126t-70 -118.5t-112 -88t-155.5 -33.5q-95 0 -159.5 32t-102 85.5t-52.5 118.5t-11 130q3 63 27 127.5t70 118.5t113 87t156 33zM389 648q-51 -1 -87.5 -28t-59.5 -70t-34.5 -92.5t-13.5 -95.5
q-3 -47 4.5 -100.5t28.5 -101.5t58 -78t94 -30q52 0 88.5 26.5t59.5 68.5t35 91t14 95q3 69 -6 127t-32 100.5t-60 65.5t-89 22zM317 797q-25 0 -42.5 20.5t-17.5 50.5q0 33 21 57t49 24q26 0 42.5 -21t16.5 -50q0 -32 -20 -56.5t-49 -24.5zM492 797q-26 0 -43 20.5
t-17 50.5q0 33 20.5 57t48.5 24q27 0 43 -21t16 -50q0 -33 -19.5 -57t-48.5 -24z" />
    <glyph glyph-name="multiply" unicode="&#xd7;" 
d="M151 545l298 -315l-58 -55l-298 315zM463 491l-333 -316l-51 54l333 316z" />
    <glyph glyph-name="Oslash" unicode="&#xd8;" horiz-adv-x="761" 
d="M159 -102l-72 50l65 102q-44 36 -69.5 85t-35.5 104.5t-7 110.5q3 63 27 127.5t70 118.5t113 87t156 33q44 0 81 -8t68 -23l63 98l76 -49l-64 -101q57 -55 80.5 -132t19.5 -151q-3 -62 -27.5 -126t-70 -118.5t-112 -88t-155.5 -33.5q-40 0 -73.5 6t-62.5 17zM225 165
l280 440q-22 22 -51 33t-65 10q-51 -1 -87.5 -28t-59.5 -70t-34.5 -92.5t-13.5 -95.5q-3 -46 4 -98.5t27 -98.5zM379 52q52 0 88.5 26.5t59.5 68.5t35 91t14 95q3 53 -2 100t-18 85l-276 -432q20 -16 44 -25t55 -9z" />
    <glyph glyph-name="Ugrave" unicode="&#xd9;" horiz-adv-x="755" 
d="M756 700l-4 -66q-22 -1 -38 -6t-25.5 -22.5t-11.5 -58.5l-13 -250q-5 -86 -29.5 -146t-64 -97t-91.5 -53.5t-112 -16.5q-84 0 -138.5 24t-84.5 67t-40 99t-7 120l13 242q2 27 4 52t5 38q-16 -1 -40.5 -1.5t-35.5 -1.5l4 77h286l-4 -66q-22 -1 -38.5 -6t-26 -22.5
t-11.5 -58.5l-14 -275q-3 -63 8 -103.5t32.5 -64t49.5 -33.5t58 -11q55 -2 95.5 21t63.5 71t27 122l14 262q2 27 4 52t5 38q-16 -1 -40 -1.5t-35 -1.5l3 77h232zM471 770l-141 84q-15 10 -26 24.5t-12 31.5t12 33q13 17 30.5 19.5t35.5 -5t31 -21.5l109 -117z" />
    <glyph glyph-name="Uacute" unicode="&#xda;" horiz-adv-x="755" 
d="M756 700l-4 -66q-22 -1 -38 -6t-25.5 -22.5t-11.5 -58.5l-13 -250q-5 -86 -29.5 -146t-64 -97t-91.5 -53.5t-112 -16.5q-84 0 -138.5 24t-84.5 67t-40 99t-7 120l13 242q2 27 4 52t5 38q-16 -1 -40.5 -1.5t-35.5 -1.5l4 77h286l-4 -66q-22 -1 -38.5 -6t-26 -22.5
t-11.5 -58.5l-14 -275q-3 -63 8 -103.5t32.5 -64t49.5 -33.5t58 -11q55 -2 95.5 21t63.5 71t27 122l14 262q2 27 4 52t5 38q-16 -1 -40 -1.5t-35 -1.5l3 77h232zM391 770l-34 48l122 118q15 14 33 21.5t35.5 5t28.5 -19.5q12 -17 9 -34t-15 -31t-29 -24z" />
    <glyph glyph-name="Ucircumflex" unicode="&#xdb;" horiz-adv-x="755" 
d="M756 700l-4 -66q-22 -1 -38 -6t-25.5 -22.5t-11.5 -58.5l-13 -250q-5 -86 -29.5 -146t-64 -97t-91.5 -53.5t-112 -16.5q-84 0 -138.5 24t-84.5 67t-40 99t-7 120l13 242q2 27 4 52t5 38q-16 -1 -40.5 -1.5t-35.5 -1.5l4 77h286l-4 -66q-22 -1 -38.5 -6t-26 -22.5
t-11.5 -58.5l-14 -275q-3 -63 8 -103.5t32.5 -64t49.5 -33.5t58 -11q55 -2 95.5 21t63.5 71t27 122l14 262q2 27 4 52t5 38q-16 -1 -40 -1.5t-35 -1.5l3 77h232zM611 779l-179 88l-193 -86l-19 40l212 150h19l188 -150z" />
    <glyph glyph-name="Udieresis" unicode="&#xdc;" horiz-adv-x="755" 
d="M756 700l-4 -66q-22 -1 -38 -6t-25.5 -22.5t-11.5 -58.5l-13 -250q-5 -86 -29.5 -146t-64 -97t-91.5 -53.5t-112 -16.5q-84 0 -138.5 24t-84.5 67t-40 99t-7 120l13 242q2 27 4 52t5 38q-16 -1 -40.5 -1.5t-35.5 -1.5l4 77h286l-4 -66q-22 -1 -38.5 -6t-26 -22.5
t-11.5 -58.5l-14 -275q-3 -63 8 -103.5t32.5 -64t49.5 -33.5t58 -11q55 -2 95.5 21t63.5 71t27 122l14 262q2 27 4 52t5 38q-16 -1 -40 -1.5t-35 -1.5l3 77h232zM340 797q-25 0 -42.5 20.5t-17.5 50.5q0 33 21 57t49 24q26 0 42.5 -21t16.5 -50q0 -32 -20 -56.5t-49 -24.5z
M515 797q-26 0 -43 20.5t-17 50.5q0 33 20.5 57t48.5 24q27 0 43 -21t16 -50q0 -33 -19.5 -57t-48.5 -24z" />
    <glyph glyph-name="Yacute" unicode="&#xdd;" horiz-adv-x="665" 
d="M190 0l4 66q23 1 39 6t25.5 23t11.5 58l4 87l-169 291q-13 23 -23.5 51t-9.5 44q-16 -1 -27 -1.5t-22 -1.5l4 77h292l-3 -66q-29 2 -48.5 -6t-24 -25.5t9.5 -45.5q17 -31 35 -62t35 -63q4 -8 13 -25.5t18.5 -37t13.5 -34.5h2q5 12 18.5 36t32.5 62q14 26 29 51.5t29 50.5
q6 11 16 28.5t21 35t20 27.5q-16 -1 -41 -1.5t-36 -1.5l4 77h221l-3 -66q-35 -5 -61 -28.5t-58 -78.5l-144 -250l-5 -113q-1 -27 -4 -52t-5 -38q11 1 27 1.5t31 1t22 0.5l-4 -77h-290zM346 770l-34 48l122 118q15 14 33 21.5t35.5 5t28.5 -19.5q12 -17 9 -34t-15 -31
t-29 -24z" />
    <glyph glyph-name="Thorn" unicode="&#xde;" horiz-adv-x="630" 
d="M35 0l4 66q22 1 38 6t25.5 23t11.5 58l20 383q2 27 4.5 52t4.5 38q-16 -1 -40 -1.5t-35 -1.5l4 77h284l-3 -66q-30 -1 -49 -10.5t-25 -53.5q15 0 30 0.5t30 0.5q88 1 152.5 -19t98.5 -66.5t28 -126.5q-3 -40 -23.5 -76.5t-57.5 -65t-91 -46t-125 -19.5q-21 -1 -35.5 -1
t-29.5 1q-1 -16 -2 -31t-2.5 -27l-2.5 -20q16 2 40.5 2.5t34.5 0.5l-4 -77h-285zM260 225q9 -1 18 -1.5t19 -0.5q83 0 123 36t44 109q3 48 -11 75t-36 39t-45 15t-39 3h-31.5h-26.5z" />
    <glyph glyph-name="germandbls" unicode="&#xdf;" horiz-adv-x="671" 
d="M-20 -271q-46 0 -70.5 19.5t-24.5 52.5q0 12 6 27t20 26t36 10q23 -1 38 -18.5t11 -43.5q2 -1 5.5 -1.5t7.5 -0.5q17 0 28 18t17.5 47t10 62t6.5 62q4 43 8 100.5t8.5 120t9 119.5t7.5 99l-80 -1l9 73h80q9 77 35 127.5t64 79.5t82 41t87 12q33 0 71 -5.5t72 -20.5
t56 -43t22 -73q0 -31 -13 -55.5t-33.5 -43.5t-43.5 -36q-33 -24 -60.5 -44.5t-27.5 -45.5q0 -12 3 -22.5t20 -25t57 -38.5q33 -19 66.5 -41t55.5 -51.5t22 -71.5q0 -45 -26 -80t-70.5 -54.5t-102.5 -19.5q-48 0 -87.5 14t-63 40.5t-23.5 61.5q0 31 18.5 50.5t45.5 19.5
t44 -18t17 -44q0 -7 -1.5 -14.5t-4.5 -15.5q5 -10 24 -19t34 -9q44 0 59 19t15 43q0 28 -28.5 48.5t-67.5 42.5q-46 26 -73.5 48.5t-40 44.5t-12.5 46q0 33 15 57.5t38 44.5t48 38.5t46 37.5q19 18 30.5 39t9.5 48q-2 31 -17.5 47.5t-36.5 22.5t-42 6q-47 0 -77 -21.5
t-47 -56.5t-25 -75.5t-11 -79.5q-4 -46 -7.5 -93t-7.5 -93.5l-8 -93t-7.5 -93t-7.5 -93.5q-9 -77 -34 -136t-70 -91.5t-113 -32.5z" />
    <glyph glyph-name="agrave" unicode="&#xe0;" horiz-adv-x="549" 
d="M327 511q28 0 65.5 -5.5t78.5 -15.5q-5 -37 -13 -91t-15.5 -110.5t-12.5 -104t-5 -73.5q0 -18 4.5 -23.5t9.5 -5.5q12 0 25 17t26 62l54 -16q-4 -21 -14 -48t-26.5 -51.5t-41 -40.5t-57.5 -16q-32 0 -56 19t-24 72q0 13 1 29t3 29h-1q-18 -43 -38.5 -72t-42 -46t-44 -24
t-45.5 -7q-55 0 -94 44.5t-39 137.5q0 69 20 130t59 108.5t95 74.5t128 27zM290 445q-28 0 -51.5 -18t-41 -53t-26.5 -87t-9 -121q0 -41 10 -64.5t28 -23.5q22 0 41 22.5t34.5 61t27 86t19 97t9.5 94.5q-5 2 -17.5 4t-23.5 2zM361 565l-114 107q-12 13 -19.5 30.5t-5 35.5
t18.5 32q17 13 34 12.5t32 -10t24 -26.5l78 -140z" />
    <glyph glyph-name="aacute" unicode="&#xe1;" horiz-adv-x="549" 
d="M327 511q28 0 65.5 -5.5t78.5 -15.5q-5 -37 -13 -91t-15.5 -110.5t-12.5 -104t-5 -73.5q0 -18 4.5 -23.5t9.5 -5.5q12 0 25 17t26 62l54 -16q-4 -21 -14 -48t-26.5 -51.5t-41 -40.5t-57.5 -16q-32 0 -56 19t-24 72q0 13 1 29t3 29h-1q-18 -43 -38.5 -72t-42 -46t-44 -24
t-45.5 -7q-55 0 -94 44.5t-39 137.5q0 69 20 130t59 108.5t95 74.5t128 27zM290 445q-28 0 -51.5 -18t-41 -53t-26.5 -87t-9 -121q0 -41 10 -64.5t28 -23.5q22 0 41 22.5t34.5 61t27 86t19 97t9.5 94.5q-5 2 -17.5 4t-23.5 2zM267 565l-44 41l89 140q11 17 28 27t35 10
t32 -13q16 -14 17.5 -32.5t-7 -36.5t-23.5 -30z" />
    <glyph glyph-name="acircumflex" unicode="&#xe2;" horiz-adv-x="549" 
d="M327 511q28 0 65.5 -5.5t78.5 -15.5q-5 -37 -13 -91t-15.5 -110.5t-12.5 -104t-5 -73.5q0 -18 4.5 -23.5t9.5 -5.5q12 0 25 17t26 62l54 -16q-4 -21 -14 -48t-26.5 -51.5t-41 -40.5t-57.5 -16q-32 0 -56 19t-24 72q0 13 1 29t3 29h-1q-18 -43 -38.5 -72t-42 -46t-44 -24
t-45.5 -7q-55 0 -94 44.5t-39 137.5q0 69 20 130t59 108.5t95 74.5t128 27zM290 445q-28 0 -51.5 -18t-41 -53t-26.5 -87t-9 -121q0 -41 10 -64.5t28 -23.5q22 0 41 22.5t34.5 61t27 86t19 97t9.5 94.5q-5 2 -17.5 4t-23.5 2zM451 567l-125 104h-1l-136 -100l-35 47l179 165
h10l152 -170z" />
    <glyph glyph-name="atilde" unicode="&#xe3;" horiz-adv-x="549" 
d="M327 511q28 0 65.5 -5.5t78.5 -15.5q-5 -37 -13 -91t-15.5 -110.5t-12.5 -104t-5 -73.5q0 -18 4.5 -23.5t9.5 -5.5q12 0 25 17t26 62l54 -16q-4 -21 -14 -48t-26.5 -51.5t-41 -40.5t-57.5 -16q-32 0 -56 19t-24 72q0 13 1 29t3 29h-1q-18 -43 -38.5 -72t-42 -46t-44 -24
t-45.5 -7q-55 0 -94 44.5t-39 137.5q0 69 20 130t59 108.5t95 74.5t128 27zM290 445q-28 0 -51.5 -18t-41 -53t-26.5 -87t-9 -121q0 -41 10 -64.5t28 -23.5q22 0 41 22.5t34.5 61t27 86t19 97t9.5 94.5q-5 2 -17.5 4t-23.5 2zM200 606l-53 34q16 45 49 71.5t66 26.5
q31 0 49 -9.5t33.5 -19t39.5 -9.5q18 0 34.5 14t29.5 37l53 -28q-20 -63 -53.5 -88.5t-63.5 -25.5q-27 0 -46.5 9.5t-36.5 19t-37 9.5q-12 0 -30.5 -8.5t-33.5 -32.5z" />
    <glyph glyph-name="adieresis" unicode="&#xe4;" horiz-adv-x="549" 
d="M327 511q28 0 65.5 -5.5t78.5 -15.5q-5 -37 -13 -91t-15.5 -110.5t-12.5 -104t-5 -73.5q0 -18 4.5 -23.5t9.5 -5.5q12 0 25 17t26 62l54 -16q-4 -21 -14 -48t-26.5 -51.5t-41 -40.5t-57.5 -16q-32 0 -56 19t-24 72q0 13 1 29t3 29h-1q-18 -43 -38.5 -72t-42 -46t-44 -24
t-45.5 -7q-55 0 -94 44.5t-39 137.5q0 69 20 130t59 108.5t95 74.5t128 27zM290 445q-28 0 -51.5 -18t-41 -53t-26.5 -87t-9 -121q0 -41 10 -64.5t28 -23.5q22 0 41 22.5t34.5 61t27 86t19 97t9.5 94.5q-5 2 -17.5 4t-23.5 2zM407 600q-26 0 -43.5 20t-17.5 50q0 33 21 57
t49 24q27 0 43.5 -20.5t16.5 -49.5q0 -34 -20 -57.5t-49 -23.5zM233 600q-26 0 -43.5 20t-17.5 50q0 33 21 57t49 24q27 0 43.5 -20.5t16.5 -49.5q0 -34 -20 -57.5t-49 -23.5z" />
    <glyph glyph-name="aring" unicode="&#xe5;" horiz-adv-x="549" 
d="M327 511q28 0 65.5 -5.5t78.5 -15.5q-5 -37 -13 -91t-15.5 -110.5t-12.5 -104t-5 -73.5q0 -18 4.5 -23.5t9.5 -5.5q12 0 25 17t26 62l54 -16q-4 -21 -14 -48t-26.5 -51.5t-41 -40.5t-57.5 -16q-32 0 -56 19t-24 72q0 13 1 29t3 29h-1q-18 -43 -38.5 -72t-42 -46t-44 -24
t-45.5 -7q-55 0 -94 44.5t-39 137.5q0 69 20 130t59 108.5t95 74.5t128 27zM290 445q-28 0 -51.5 -18t-41 -53t-26.5 -87t-9 -121q0 -41 10 -64.5t28 -23.5q22 0 41 22.5t34.5 61t27 86t19 97t9.5 94.5q-5 2 -17.5 4t-23.5 2zM318 563q-27 0 -53.5 13t-43 38t-16.5 60
q1 35 18.5 62t46 43t59.5 16q28 0 54 -12t43 -36t16 -62q-1 -37 -20 -64.5t-47 -42.5t-57 -15zM326 623q13 1 24.5 13.5t12.5 35.5q2 34 -9.5 49t-27.5 15q-13 -1 -25 -12.5t-14 -36.5q-1 -31 10 -47.5t29 -16.5z" />
    <glyph glyph-name="ae" unicode="&#xe6;" horiz-adv-x="731" 
d="M538 511q33 0 61 -7.5t48 -22.5t31.5 -39t11.5 -57q0 -41 -25 -68.5t-65.5 -44.5t-88 -27.5t-91.5 -16.5q0 -57 14 -89t35.5 -45t42.5 -13q17 0 41 7t49 28t43 62l56 -28q-28 -65 -63.5 -100t-74.5 -48t-78 -13q-52 -1 -84 18.5t-58 53.5q-44 -43 -92 -57t-92 -15
q-72 0 -107.5 38t-32.5 95q3 48 28 78.5t65.5 48.5t90 26t99.5 10q1 17 1.5 33t1.5 32q2 26 -4 47t-20.5 32.5t-40.5 10.5q-19 -1 -36.5 -7t-30.5 -19q7 -9 8.5 -21t1.5 -19q-1 -21 -18.5 -42.5t-52.5 -20.5q-29 1 -44 21t-14 47q2 37 29 67t73 47.5t104 17.5q47 0 81 -15
t47 -58q28 35 67 54t83 19zM298 224q-28 -3 -54.5 -8.5t-47 -15.5t-33 -25t-13.5 -36q-1 -28 18 -42t40 -14q23 0 52.5 9t45.5 25q-4 31 -6.5 55.5t-1.5 51.5zM527 445q-34 0 -55 -22.5t-32.5 -57.5t-15.5 -73q54 10 87 25.5t48.5 36.5t14.5 45q0 17 -8 27t-18.5 14.5
t-20.5 4.5z" />
    <glyph glyph-name="ccedilla" unicode="&#xe7;" horiz-adv-x="467" 
d="M273 511q46 0 82.5 -15t58 -41.5t21.5 -63.5q0 -30 -17.5 -49t-46.5 -20q-34 -1 -48 20.5t-14 38.5q0 9 2.5 20.5t7.5 21.5q-4 9 -17 15.5t-31 6.5q-32 0 -52.5 -21.5t-32 -54.5t-16.5 -69.5t-6 -66.5q-2 -54 10 -87t32 -48t41 -17q19 -1 43 5.5t49 29t45 69.5l57 -28
q-28 -65 -63 -101.5t-74 -51t-81 -15.5q-88 1 -142 54t-54 164q0 48 15 101t45.5 99t76.5 75t109 29zM114 -259l-5 52q12 2 32.5 6.5t41.5 12t35.5 18.5t15.5 26q1 17 -12 22t-30 1t-27 -12l-37 16l38 127h76l-33 -79q14 7 35.5 11.5t34.5 4.5q31 -1 51 -17.5t18 -52.5
q-2 -35 -27.5 -59t-62.5 -39.5t-76 -24.5t-68 -13z" />
    <glyph glyph-name="egrave" unicode="&#xe8;" horiz-adv-x="470" 
d="M280 511q44 0 78 -13t53 -41t19 -72q0 -41 -24.5 -69.5t-64 -46.5t-86.5 -29.5t-91 -17.5q0 -57 13.5 -87.5t34.5 -42t42 -11.5q17 0 40.5 6.5t47.5 27.5t42 62l56 -27q-28 -65 -63 -100t-73 -48t-77 -13q-92 -1 -146 53t-54 165q0 48 15 101t45.5 99t78.5 75t114 29z
M269 445q-34 0 -55 -24t-32 -60.5t-15 -73.5q54 10 86 27t46.5 39t13.5 46q-1 25 -15 35.5t-29 10.5zM300 565l-114 107q-12 13 -19.5 30.5t-5 35.5t18.5 32q17 13 34 12.5t32 -10t24 -26.5l78 -140z" />
    <glyph glyph-name="eacute" unicode="&#xe9;" horiz-adv-x="470" 
d="M280 511q44 0 78 -13t53 -41t19 -72q0 -41 -24.5 -69.5t-64 -46.5t-86.5 -29.5t-91 -17.5q0 -57 13.5 -87.5t34.5 -42t42 -11.5q17 0 40.5 6.5t47.5 27.5t42 62l56 -27q-28 -65 -63 -100t-73 -48t-77 -13q-92 -1 -146 53t-54 165q0 48 15 101t45.5 99t78.5 75t114 29z
M269 445q-34 0 -55 -24t-32 -60.5t-15 -73.5q54 10 86 27t46.5 39t13.5 46q-1 25 -15 35.5t-29 10.5zM206 565l-44 41l89 140q11 17 28 27t35 10t32 -13q16 -14 17.5 -32.5t-7 -36.5t-23.5 -30z" />
    <glyph glyph-name="ecircumflex" unicode="&#xea;" horiz-adv-x="470" 
d="M280 511q44 0 78 -13t53 -41t19 -72q0 -41 -24.5 -69.5t-64 -46.5t-86.5 -29.5t-91 -17.5q0 -57 13.5 -87.5t34.5 -42t42 -11.5q17 0 40.5 6.5t47.5 27.5t42 62l56 -27q-28 -65 -63 -100t-73 -48t-77 -13q-92 -1 -146 53t-54 165q0 48 15 101t45.5 99t78.5 75t114 29z
M269 445q-34 0 -55 -24t-32 -60.5t-15 -73.5q54 10 86 27t46.5 39t13.5 46q-1 25 -15 35.5t-29 10.5zM390 567l-125 104h-1l-136 -100l-35 47l179 165h10l152 -170z" />
    <glyph glyph-name="edieresis" unicode="&#xeb;" horiz-adv-x="470" 
d="M280 511q44 0 78 -13t53 -41t19 -72q0 -41 -24.5 -69.5t-64 -46.5t-86.5 -29.5t-91 -17.5q0 -57 13.5 -87.5t34.5 -42t42 -11.5q17 0 40.5 6.5t47.5 27.5t42 62l56 -27q-28 -65 -63 -100t-73 -48t-77 -13q-92 -1 -146 53t-54 165q0 48 15 101t45.5 99t78.5 75t114 29z
M269 445q-34 0 -55 -24t-32 -60.5t-15 -73.5q54 10 86 27t46.5 39t13.5 46q-1 25 -15 35.5t-29 10.5zM346 600q-26 0 -43.5 20t-17.5 50q0 33 21 57t49 24q27 0 43.5 -20.5t16.5 -49.5q0 -34 -20 -57.5t-49 -23.5zM172 600q-26 0 -43.5 20t-17.5 50q0 33 21 57t49 24
q27 0 43.5 -20.5t16.5 -49.5q0 -34 -20 -57.5t-49 -23.5z" />
    <glyph glyph-name="igrave" unicode="&#xec;" horiz-adv-x="344" 
d="M156 511q52 0 72.5 -31.5t20.5 -84.5q0 -24 -5 -65t-11 -86t-11 -82t-5 -54q0 -16 5 -21t10 -5q12 0 24 17t25 62l54 -16q-4 -21 -15.5 -48t-30.5 -51.5t-45.5 -40.5t-60.5 -16q-55 0 -75.5 30t-20.5 83q0 29 5 69t11.5 82t11.5 78.5t5 60.5q0 17 -5 21.5t-11 4.5
q-11 0 -23 -17t-25 -62l-54 16q4 21 16 48t31.5 51.5t46 40.5t60.5 16zM222 565l-114 107q-12 13 -19.5 30.5t-5 35.5t18.5 32q17 13 34 12.5t32 -10t24 -26.5l78 -140z" />
    <glyph glyph-name="iacute" unicode="&#xed;" horiz-adv-x="344" 
d="M156 511q52 0 72.5 -31.5t20.5 -84.5q0 -24 -5 -65t-11 -86t-11 -82t-5 -54q0 -16 5 -21t10 -5q12 0 24 17t25 62l54 -16q-4 -21 -15.5 -48t-30.5 -51.5t-45.5 -40.5t-60.5 -16q-55 0 -75.5 30t-20.5 83q0 29 5 69t11.5 82t11.5 78.5t5 60.5q0 17 -5 21.5t-11 4.5
q-11 0 -23 -17t-25 -62l-54 16q4 21 16 48t31.5 51.5t46 40.5t60.5 16zM128 565l-44 41l89 140q11 17 28 27t35 10t32 -13q16 -14 17.5 -32.5t-7 -36.5t-23.5 -30z" />
    <glyph glyph-name="icircumflex" unicode="&#xee;" horiz-adv-x="344" 
d="M156 511q52 0 72.5 -31.5t20.5 -84.5q0 -24 -5 -65t-11 -86t-11 -82t-5 -54q0 -16 5 -21t10 -5q12 0 24 17t25 62l54 -16q-4 -21 -15.5 -48t-30.5 -51.5t-45.5 -40.5t-60.5 -16q-55 0 -75.5 30t-20.5 83q0 29 5 69t11.5 82t11.5 78.5t5 60.5q0 17 -5 21.5t-11 4.5
q-11 0 -23 -17t-25 -62l-54 16q4 21 16 48t31.5 51.5t46 40.5t60.5 16zM200 783l137 -170l-44 -46l-113 104h-1l-123 -100l-35 47l169 165h10z" />
    <glyph glyph-name="idieresis" unicode="&#xef;" horiz-adv-x="344" 
d="M156 511q52 0 72.5 -31.5t20.5 -84.5q0 -24 -5 -65t-11 -86t-11 -82t-5 -54q0 -16 5 -21t10 -5q12 0 24 17t25 62l54 -16q-4 -21 -15.5 -48t-30.5 -51.5t-45.5 -40.5t-60.5 -16q-55 0 -75.5 30t-20.5 83q0 29 5 69t11.5 82t11.5 78.5t5 60.5q0 17 -5 21.5t-11 4.5
q-11 0 -23 -17t-25 -62l-54 16q4 21 16 48t31.5 51.5t46 40.5t60.5 16zM268 600q-26 0 -43.5 20t-17.5 50q0 33 21 57t49 24q27 0 43.5 -20.5t16.5 -49.5q0 -34 -20 -57.5t-49 -23.5zM94 600q-26 0 -43.5 20t-17.5 50q0 33 21 57t49 24q27 0 43.5 -20.5t16.5 -49.5
q0 -34 -20 -57.5t-49 -23.5z" />
    <glyph glyph-name="eth" unicode="&#xf0;" horiz-adv-x="522" 
d="M290 790l55 -52l-54 -50q55 -39 96.5 -94.5t64.5 -126t23 -155.5q0 -64 -14.5 -122t-45 -103.5t-77 -71.5t-109.5 -26q-52 0 -98 22.5t-74 73.5t-28 136q0 43 12.5 91.5t39.5 91t69.5 69.5t102.5 27q38 0 60 -14t37 -31q-3 28 -20.5 60.5t-41 60.5t-46.5 41l-62 -71
l-57 53l51 57q-17 11 -39 19.5t-49 13.5l17 71q44 -4 77 -15t55 -22zM269 435q-39 0 -62 -31.5t-33.5 -79.5t-10.5 -97q0 -74 17 -123t63 -49q23 0 40 13t29 35t19 49t10 55t3 53q0 47 -6 87t-22 64t-47 24z" />
    <glyph glyph-name="ntilde" unicode="&#xf1;" horiz-adv-x="610" 
d="M453 -11q-55 0 -74.5 30t-19.5 83q0 30 4 67.5t8.5 76.5t8.5 73.5t4 57.5q0 15 -3 24.5t-9 13.5t-16 4q-18 0 -37.5 -22t-37.5 -59.5t-32 -83t-22.5 -93t-8.5 -89.5q0 -13 1 -36.5t2 -35.5h-129q-2 21 -2.5 29.5t-0.5 18.5q0 21 2.5 49.5t6.5 62t8 66.5q3 27 6.5 52.5
t6.5 48t4.5 39.5t1.5 26q0 17 -4.5 21.5t-9.5 4.5q-11 0 -23 -17t-25 -62l-55 16q5 21 14 48t25 51.5t39 40.5t56 16q22 0 41 -8t31 -27.5t12 -55.5q0 -19 -2 -31t-4 -29h1q24 60 52.5 93t59 45.5t59.5 12.5q43 0 69 -19t38.5 -53.5t12.5 -81.5q0 -36 -6 -80t-12.5 -88
t-6.5 -81q0 -16 5 -21t10 -5q11 0 23 17t25 62l54 -16q-4 -21 -15.5 -48t-30.5 -51.5t-45 -40.5t-60 -16zM217 606l-53 34q16 45 49 71.5t66 26.5q31 0 49 -9.5t33.5 -19t39.5 -9.5q18 0 34.5 14t29.5 37l53 -28q-20 -63 -53.5 -88.5t-63.5 -25.5q-27 0 -46.5 9.5t-36.5 19
t-37 9.5q-12 0 -30.5 -8.5t-33.5 -32.5z" />
    <glyph glyph-name="ograve" unicode="&#xf2;" horiz-adv-x="515" 
d="M279 511q56 0 101.5 -26t72.5 -76t27 -121q0 -79 -30.5 -147.5t-86.5 -110t-134 -41.5q-67 0 -112 30.5t-67 82.5t-22 114q0 80 30.5 147t87 107.5t133.5 40.5zM264 445q-30 1 -52.5 -26.5t-35 -73.5t-12.5 -101q0 -30 3.5 -63t13 -61.5t25 -46.5t39.5 -18q26 0 44 20
t29.5 51.5t17 66.5t6.5 66q1 27 -2 59t-11 61t-24 47.5t-41 18.5zM310 565l-114 107q-12 13 -19.5 30.5t-5 35.5t18.5 32q17 13 34 12.5t32 -10t24 -26.5l78 -140z" />
    <glyph glyph-name="oacute" unicode="&#xf3;" horiz-adv-x="515" 
d="M279 511q56 0 101.5 -26t72.5 -76t27 -121q0 -79 -30.5 -147.5t-86.5 -110t-134 -41.5q-67 0 -112 30.5t-67 82.5t-22 114q0 80 30.5 147t87 107.5t133.5 40.5zM264 445q-30 1 -52.5 -26.5t-35 -73.5t-12.5 -101q0 -30 3.5 -63t13 -61.5t25 -46.5t39.5 -18q26 0 44 20
t29.5 51.5t17 66.5t6.5 66q1 27 -2 59t-11 61t-24 47.5t-41 18.5zM216 565l-44 41l89 140q11 17 28 27t35 10t32 -13q16 -14 17.5 -32.5t-7 -36.5t-23.5 -30z" />
    <glyph glyph-name="ocircumflex" unicode="&#xf4;" horiz-adv-x="515" 
d="M279 511q56 0 101.5 -26t72.5 -76t27 -121q0 -79 -30.5 -147.5t-86.5 -110t-134 -41.5q-67 0 -112 30.5t-67 82.5t-22 114q0 80 30.5 147t87 107.5t133.5 40.5zM264 445q-30 1 -52.5 -26.5t-35 -73.5t-12.5 -101q0 -30 3.5 -63t13 -61.5t25 -46.5t39.5 -18q26 0 44 20
t29.5 51.5t17 66.5t6.5 66q1 27 -2 59t-11 61t-24 47.5t-41 18.5zM400 567l-125 104h-1l-136 -100l-35 47l179 165h10l152 -170z" />
    <glyph glyph-name="otilde" unicode="&#xf5;" horiz-adv-x="515" 
d="M279 511q56 0 101.5 -26t72.5 -76t27 -121q0 -79 -30.5 -147.5t-86.5 -110t-134 -41.5q-67 0 -112 30.5t-67 82.5t-22 114q0 80 30.5 147t87 107.5t133.5 40.5zM264 445q-30 1 -52.5 -26.5t-35 -73.5t-12.5 -101q0 -30 3.5 -63t13 -61.5t25 -46.5t39.5 -18q26 0 44 20
t29.5 51.5t17 66.5t6.5 66q1 27 -2 59t-11 61t-24 47.5t-41 18.5zM149 606l-53 34q16 45 49 71.5t66 26.5q31 0 49 -9.5t33.5 -19t39.5 -9.5q18 0 34.5 14t29.5 37l53 -28q-20 -63 -53.5 -88.5t-63.5 -25.5q-27 0 -46.5 9.5t-36.5 19t-37 9.5q-12 0 -30.5 -8.5t-33.5 -32.5z
" />
    <glyph glyph-name="odieresis" unicode="&#xf6;" horiz-adv-x="515" 
d="M279 511q56 0 101.5 -26t72.5 -76t27 -121q0 -79 -30.5 -147.5t-86.5 -110t-134 -41.5q-67 0 -112 30.5t-67 82.5t-22 114q0 80 30.5 147t87 107.5t133.5 40.5zM264 445q-30 1 -52.5 -26.5t-35 -73.5t-12.5 -101q0 -30 3.5 -63t13 -61.5t25 -46.5t39.5 -18q26 0 44 20
t29.5 51.5t17 66.5t6.5 66q1 27 -2 59t-11 61t-24 47.5t-41 18.5zM356 600q-26 0 -43.5 20t-17.5 50q0 33 21 57t49 24q27 0 43.5 -20.5t16.5 -49.5q0 -34 -20 -57.5t-49 -23.5zM182 600q-26 0 -43.5 20t-17.5 50q0 33 21 57t49 24q27 0 43.5 -20.5t16.5 -49.5
q0 -34 -20 -57.5t-49 -23.5z" />
    <glyph glyph-name="divide" unicode="&#xf7;" 
d="M268 279q31 0 50.5 -23t17.5 -55q-1 -32 -22 -55t-53 -23q-33 0 -52 23t-18 55q2 32 25 55t52 23zM285 602q31 0 50.5 -23t17.5 -55q-1 -32 -22 -55t-53 -23q-33 0 -52 23t-18 55q2 32 25 55t52 23zM50 399h446l-4 -78h-446z" />
    <glyph glyph-name="oslash" unicode="&#xf8;" horiz-adv-x="515" 
d="M435 570l64 -49l-63 -85q21 -28 32.5 -65t11.5 -83q0 -79 -30.5 -147.5t-86.5 -110t-134 -41.5q-57 0 -98 23l-65 -89l-53 44l64 90q-25 31 -37 72t-12 87q0 80 30.5 147t87 107.5t133.5 40.5q55 0 97 -24zM351 326l-166 -231q11 -18 26.5 -29t35.5 -11q29 0 49 20
t33 51.5t19 66.5t7 66q0 15 -1 32.5t-3 34.5zM264 445q-33 0 -58.5 -27.5t-40 -73t-14.5 -100.5q0 -19 2 -39t6 -40l167 240q-10 18 -25.5 29t-36.5 11z" />
    <glyph glyph-name="ugrave" unicode="&#xf9;" horiz-adv-x="598" 
d="M211 -11q-42 0 -68.5 19t-39 53.5t-12.5 81.5q0 37 6.5 81l13 88t6.5 80q0 17 -5.5 21.5t-10.5 4.5q-11 0 -23 -17t-25 -62l-54 16q4 21 15.5 48t30.5 51.5t45 40.5t60 16q56 0 75.5 -30t19.5 -83q0 -30 -4 -67.5t-9 -76.5t-9 -73.5t-4 -57.5q0 -15 3 -24.5t9 -13.5
t16 -4q17 0 35.5 22t35.5 59.5t31 83t22.5 93t8.5 89.5q0 14 -0.5 37t-2.5 35h129q2 -21 2.5 -29.5t0.5 -18.5q0 -21 -2.5 -50.5t-6.5 -63.5t-9 -68q-3 -27 -6.5 -52t-6.5 -46.5t-4.5 -38t-1.5 -25.5q0 -16 4.5 -21t9.5 -5q11 0 23 17t25 62l54 -16q-4 -21 -13 -48
t-25 -51.5t-39 -40.5t-56 -16q-32 0 -58 19t-26 72q0 20 2 34t3 31h-1q-23 -60 -50 -94t-56 -48t-58 -14zM352 565l-114 107q-12 13 -19.5 30.5t-5 35.5t18.5 32q17 13 34 12.5t32 -10t24 -26.5l78 -140z" />
    <glyph glyph-name="uacute" unicode="&#xfa;" horiz-adv-x="598" 
d="M211 -11q-42 0 -68.5 19t-39 53.5t-12.5 81.5q0 37 6.5 81l13 88t6.5 80q0 17 -5.5 21.5t-10.5 4.5q-11 0 -23 -17t-25 -62l-54 16q4 21 15.5 48t30.5 51.5t45 40.5t60 16q56 0 75.5 -30t19.5 -83q0 -30 -4 -67.5t-9 -76.5t-9 -73.5t-4 -57.5q0 -15 3 -24.5t9 -13.5
t16 -4q17 0 35.5 22t35.5 59.5t31 83t22.5 93t8.5 89.5q0 14 -0.5 37t-2.5 35h129q2 -21 2.5 -29.5t0.5 -18.5q0 -21 -2.5 -50.5t-6.5 -63.5t-9 -68q-3 -27 -6.5 -52t-6.5 -46.5t-4.5 -38t-1.5 -25.5q0 -16 4.5 -21t9.5 -5q11 0 23 17t25 62l54 -16q-4 -21 -13 -48
t-25 -51.5t-39 -40.5t-56 -16q-32 0 -58 19t-26 72q0 20 2 34t3 31h-1q-23 -60 -50 -94t-56 -48t-58 -14zM258 565l-44 41l89 140q11 17 28 27t35 10t32 -13q16 -14 17.5 -32.5t-7 -36.5t-23.5 -30z" />
    <glyph glyph-name="ucircumflex" unicode="&#xfb;" horiz-adv-x="598" 
d="M211 -11q-42 0 -68.5 19t-39 53.5t-12.5 81.5q0 37 6.5 81l13 88t6.5 80q0 17 -5.5 21.5t-10.5 4.5q-11 0 -23 -17t-25 -62l-54 16q4 21 15.5 48t30.5 51.5t45 40.5t60 16q56 0 75.5 -30t19.5 -83q0 -30 -4 -67.5t-9 -76.5t-9 -73.5t-4 -57.5q0 -15 3 -24.5t9 -13.5
t16 -4q17 0 35.5 22t35.5 59.5t31 83t22.5 93t8.5 89.5q0 14 -0.5 37t-2.5 35h129q2 -21 2.5 -29.5t0.5 -18.5q0 -21 -2.5 -50.5t-6.5 -63.5t-9 -68q-3 -27 -6.5 -52t-6.5 -46.5t-4.5 -38t-1.5 -25.5q0 -16 4.5 -21t9.5 -5q11 0 23 17t25 62l54 -16q-4 -21 -13 -48
t-25 -51.5t-39 -40.5t-56 -16q-32 0 -58 19t-26 72q0 20 2 34t3 31h-1q-23 -60 -50 -94t-56 -48t-58 -14zM442 567l-125 104h-1l-136 -100l-35 47l179 165h10l152 -170z" />
    <glyph glyph-name="udieresis" unicode="&#xfc;" horiz-adv-x="598" 
d="M211 -11q-42 0 -68.5 19t-39 53.5t-12.5 81.5q0 37 6.5 81l13 88t6.5 80q0 17 -5.5 21.5t-10.5 4.5q-11 0 -23 -17t-25 -62l-54 16q4 21 15.5 48t30.5 51.5t45 40.5t60 16q56 0 75.5 -30t19.5 -83q0 -30 -4 -67.5t-9 -76.5t-9 -73.5t-4 -57.5q0 -15 3 -24.5t9 -13.5
t16 -4q17 0 35.5 22t35.5 59.5t31 83t22.5 93t8.5 89.5q0 14 -0.5 37t-2.5 35h129q2 -21 2.5 -29.5t0.5 -18.5q0 -21 -2.5 -50.5t-6.5 -63.5t-9 -68q-3 -27 -6.5 -52t-6.5 -46.5t-4.5 -38t-1.5 -25.5q0 -16 4.5 -21t9.5 -5q11 0 23 17t25 62l54 -16q-4 -21 -13 -48
t-25 -51.5t-39 -40.5t-56 -16q-32 0 -58 19t-26 72q0 20 2 34t3 31h-1q-23 -60 -50 -94t-56 -48t-58 -14zM398 600q-26 0 -43.5 20t-17.5 50q0 33 21 57t49 24q27 0 43.5 -20.5t16.5 -49.5q0 -34 -20 -57.5t-49 -23.5zM224 600q-26 0 -43.5 20t-17.5 50q0 33 21 57t49 24
q27 0 43.5 -20.5t16.5 -49.5q0 -34 -20 -57.5t-49 -23.5z" />
    <glyph glyph-name="yacute" unicode="&#xfd;" horiz-adv-x="561" 
d="M123 -271q-46 0 -70.5 22t-24.5 56q0 32 20.5 51t43.5 19q53 0 61 -54q2 -1 5 -1h5q17 0 35.5 13t35.5 32t30.5 38.5t19.5 33.5q-7 48 -23 103.5t-36.5 113t-42.5 111t-41 97.5q-7 16 -18.5 35t-28.5 19q-13 0 -26.5 -14t-18.5 -61l-56 8q2 22 10.5 49t26 52.5t45 42
t67.5 16.5q33 0 56.5 -15.5t40 -39.5t26.5 -49q14 -34 34 -88t38.5 -117.5t29.5 -128.5h1q21 46 35 89t22.5 82t10.5 72q1 11 0 34.5t-12 35.5q-4 -1 -7 -1h-7q-25 0 -43 17t-18 41q0 35 22 51.5t47 16.5q37 0 59.5 -21t32.5 -53t10 -66q0 -43 -14 -104t-39.5 -129.5
t-59.5 -135.5q-38 -73 -84 -135.5t-97 -100t-103 -37.5zM223 565l-44 41l89 140q11 17 28 27t35 10t32 -13q16 -14 17.5 -32.5t-7 -36.5t-23.5 -30z" />
    <glyph glyph-name="thorn" unicode="&#xfe;" horiz-adv-x="520" 
d="M225 755l-10 -102l-10 -102q-3 -30 -5.5 -52.5t-5 -47t-7.5 -61.5h1q18 34 36.5 57.5t38 37.5t39.5 20t40 6q50 0 81.5 -25.5t46 -68.5t14.5 -96q0 -71 -16 -131.5t-49.5 -105.5t-85 -70t-123.5 -25h-16t-20 1l-4 -82q-1 -14 -3 -40.5t-5 -49.5q17 2 36.5 2.5t30.5 0.5
v-76h-254v65q25 0 38 11.5t18.5 32t6.5 46.5q6 95 11 177t9.5 159t9 156t9.5 168q2 17 3 43.5t4 48.5q-16 -1 -37 -1.5t-32 -1.5l4 76q46 0 77 5t49.5 12t25.5 13h54zM294 420q-18 0 -34 -14t-29 -42t-24 -70.5t-18.5 -100.5t-11.5 -131q11 -3 25 -5t21 -2q34 0 56.5 19.5
t36.5 51t20.5 67.5t9 69.5t2.5 57.5q0 55 -16 77.5t-38 22.5z" />
    <glyph glyph-name="ydieresis" unicode="&#xff;" horiz-adv-x="561" 
d="M123 -271q-46 0 -70.5 22t-24.5 56q0 32 20.5 51t43.5 19q53 0 61 -54q2 -1 5 -1h5q17 0 35.5 13t35.5 32t30.5 38.5t19.5 33.5q-7 48 -23 103.5t-36.5 113t-42.5 111t-41 97.5q-7 16 -18.5 35t-28.5 19q-13 0 -26.5 -14t-18.5 -61l-56 8q2 22 10.5 49t26 52.5t45 42
t67.5 16.5q33 0 56.5 -15.5t40 -39.5t26.5 -49q14 -34 34 -88t38.5 -117.5t29.5 -128.5h1q21 46 35 89t22.5 82t10.5 72q1 11 0 34.5t-12 35.5q-4 -1 -7 -1h-7q-25 0 -43 17t-18 41q0 35 22 51.5t47 16.5q37 0 59.5 -21t32.5 -53t10 -66q0 -43 -14 -104t-39.5 -129.5
t-59.5 -135.5q-38 -73 -84 -135.5t-97 -100t-103 -37.5zM363 600q-26 0 -43.5 20t-17.5 50q0 33 21 57t49 24q27 0 43.5 -20.5t16.5 -49.5q0 -34 -20 -57.5t-49 -23.5zM189 600q-26 0 -43.5 20t-17.5 50q0 33 21 57t49 24q27 0 43.5 -20.5t16.5 -49.5q0 -34 -20 -57.5
t-49 -23.5z" />
    <glyph glyph-name="dotlessi" unicode="&#x131;" horiz-adv-x="344" 
d="M156 511q52 0 72.5 -31.5t20.5 -84.5q0 -24 -5 -65t-11 -86t-11 -82t-5 -54q0 -16 5 -21t10 -5q12 0 24 17t25 62l54 -16q-4 -21 -15.5 -48t-30.5 -51.5t-45.5 -40.5t-60.5 -16q-55 0 -75.5 30t-20.5 83q0 29 5 69t11.5 82t11.5 78.5t5 60.5q0 17 -5 21.5t-11 4.5
q-11 0 -23 -17t-25 -62l-54 16q4 21 16 48t31.5 51.5t46 40.5t60.5 16z" />
    <glyph glyph-name="OE" unicode="&#x152;" horiz-adv-x="1015" 
d="M362 -16q-102 2 -176.5 48.5t-113 126t-33.5 178.5q3 69 27 136t69.5 122t115 88t165.5 33q24 0 60 -4t67 -12h418l-4 -194h-66q3 55 -14.5 83t-45 37.5t-55.5 8.5l-36 -1q-21 0 -36 -5.5t-24 -24t-11 -57.5l-8 -150h118v29.5v30.5v27h77l-13 -243h-66q3 42 -9.5 60.5
t-34.5 23.5t-49 4q-7 0 -13.5 -0.5t-13.5 -0.5l-8 -164q-1 -27 -3.5 -51t-5.5 -37h134q30 0 58.5 13.5t48.5 45t23 85.5h66l-18 -220h-445q-37 -10 -74.5 -13.5t-70.5 -2.5zM391 64q32 -2 59 1.5t52 12.5l24 458q1 23 3 44t4 35q-25 16 -56 23.5t-66 5.5q-72 -3 -119 -42.5
t-70.5 -102t-27.5 -134.5q-4 -86 17.5 -152t67 -104.5t112.5 -44.5z" />
    <glyph glyph-name="oe" unicode="&#x153;" horiz-adv-x="784" 
d="M593 511q45 0 78.5 -13t52.5 -41t19 -72q0 -41 -24.5 -69.5t-64 -46.5t-86 -29.5t-90.5 -17.5q0 -57 13.5 -87.5t34 -42t41.5 -11.5q17 0 40 7t46.5 27.5t41.5 62.5l59 -28q-29 -65 -63.5 -100t-72.5 -48t-77 -13q-21 0 -49 7.5t-55.5 28.5t-46.5 59h-1
q-23 -39 -51.5 -59.5t-57 -28t-52.5 -7.5q-68 0 -112.5 30.5t-66 82.5t-21.5 114q0 80 29 147t84 107.5t131 40.5q38 0 80 -20.5t68 -76.5h1q24 35 51 56.5t57.5 31t63.5 9.5zM262 445q-30 1 -52 -26.5t-33.5 -73.5t-11.5 -101q0 -30 3.5 -63t11.5 -61.5t23.5 -46.5
t39.5 -18q26 0 43.5 20t28.5 51.5t16 66.5t6 66q1 27 -1.5 59t-10 61t-23 47.5t-40.5 18.5zM582 445q-34 0 -54.5 -24t-31.5 -60.5t-15 -73.5q41 7 69 18.5t45 26t24.5 32t6.5 35.5q-1 25 -15 35.5t-29 10.5z" />
    <glyph glyph-name="uni02BB" unicode="&#x2bb;" horiz-adv-x="250" 
d="M155 545q-47 -1 -67.5 29.5t-18.5 75.5q1 32 13 68t34.5 74t55.5 77l37 -28q-11 -14 -26 -40t-27 -57.5t-12 -60.5q7 2 11.5 2.5t9.5 0.5q27 0 47 -16t19 -50q-2 -30 -23 -52.5t-53 -22.5z" />
    <glyph glyph-name="uni02BC" unicode="&#x2bc;" horiz-adv-x="139" 
d="M73 738q47 1 67.5 -29.5t18.5 -75.5q-1 -32 -13 -68t-34.5 -74t-55.5 -77l-37 28q11 14 26 40t27 57.5t12 60.5q-7 -2 -11.5 -2.5t-9.5 -0.5q-27 0 -47 16t-19 50q2 30 23 52.5t53 22.5z" />
    <glyph glyph-name="circumflex" unicode="&#x2c6;" horiz-adv-x="429" 
d="M341 567l-125 104h-1l-136 -100l-35 47l179 165h10l152 -170z" />
    <glyph glyph-name="ring" unicode="&#x2da;" horiz-adv-x="329" 
d="M159 563q-27 0 -53.5 13t-43 38t-16.5 60q1 35 18.5 62t46 43t59.5 16q28 0 54 -12t43 -36t16 -62q-1 -37 -20 -64.5t-47 -42.5t-57 -15zM167 623q13 1 24.5 13.5t12.5 35.5q2 34 -9.5 49t-27.5 15q-13 -1 -25 -12.5t-14 -36.5q-1 -31 10 -47.5t29 -16.5z" />
    <glyph glyph-name="tilde" unicode="&#x2dc;" horiz-adv-x="444" 
d="M98 606l-53 34q16 45 49 71.5t66 26.5q31 0 49 -9.5t33.5 -19t39.5 -9.5q18 0 34.5 14t29.5 37l53 -28q-20 -63 -53.5 -88.5t-63.5 -25.5q-27 0 -46.5 9.5t-36.5 19t-37 9.5q-12 0 -30.5 -8.5t-33.5 -32.5z" />
    <glyph glyph-name="uni0327" horiz-adv-x="../0.html" 
d="M50 -259l-5 52q12 2 32.5 6.5t41.5 12t35.5 18.5t15.5 26q1 17 -12 22t-30 1t-27 -12l-37 16l38 127h76l-33 -79q14 7 35.5 11.5t34.5 4.5q31 -1 51 -17.5t18 -52.5q-2 -35 -27.5 -59t-62.5 -39.5t-76 -24.5t-68 -13z" />
    <glyph glyph-name="uni03BC" horiz-adv-x="597" 
d="M115 -271q-39 0 -52 29t-11 75l35 667h122l-14 -272q-2 -47 3.5 -81.5t21.5 -53t44 -18.5q23 0 44.5 11.5t37.5 29.5l20 384h122l-20 -358v-20t4.5 -21.5t17.5 -9.5q7 0 16 4t21 14l32 -42q-12 -16 -32 -32.5t-44 -28t-49 -11.5q-29 0 -49.5 15t-27.5 49h-1
q-48 -70 -106 -70q-32 0 -55 17t-37 43h-1q0 -54 7 -103t13.5 -85.5t5.5 -55.5q-1 -28 -16.5 -52t-51.5 -24z" />
    <glyph glyph-name="uni2010" unicode="&#x2010;" horiz-adv-x="600" 
d="M424 366l-6 -101l-368 -4l6 105h368z" />
    <glyph glyph-name="endash" unicode="&#x2013;" horiz-adv-x="563" 
d="M514 366l-5 -101l-460 -4l6 105h459z" />
    <glyph glyph-name="emdash" unicode="&#x2014;" horiz-adv-x="769" 
d="M720 366l-5 -101l-665 -4l5 105h665z" />
    <glyph glyph-name="quoteleft" unicode="&#x2018;" horiz-adv-x="225" 
d="M138 441q-47 -1 -67.5 29.5t-18.5 75.5q1 32 13 68t34.5 74t55.5 77l37 -28q-11 -14 -26 -40t-27 -57.5t-12 -60.5q7 2 11.5 2.5t9.5 0.5q27 0 47 -16t19 -50q-2 -30 -23 -52.5t-53 -22.5z" />
    <glyph glyph-name="quoteright" unicode="&#x2019;" horiz-adv-x="212" 
d="M122 759q47 1 67.5 -29.5t18.5 -75.5q-1 -32 -13 -68t-34.5 -74t-55.5 -77l-37 28q11 14 26 40t27 57.5t12 60.5q-7 -2 -11.5 -2.5t-9.5 -0.5q-27 0 -47 16t-19 50q2 30 23 52.5t53 22.5z" />
    <glyph glyph-name="quotesinglbase" unicode="&#x201a;" horiz-adv-x="249" 
d="M103 137q47 1 67.5 -29.5t18.5 -75.5q-1 -32 -13 -68t-34.5 -74t-55.5 -77l-37 28q11 14 26 40t27 57.5t12 60.5q-7 -2 -11.5 -2.5t-9.5 -0.5q-27 0 -47 16t-19 50q2 30 23 52.5t53 22.5z" />
    <glyph glyph-name="quotedblleft" unicode="&#x201c;" horiz-adv-x="415" 
d="M138 441q-47 -1 -67.5 29.5t-18.5 75.5q1 32 13 68t34.5 74t55.5 77l37 -28q-11 -14 -26 -40t-27 -57.5t-12 -60.5q7 2 11.5 2.5t9.5 0.5q27 0 47 -16t19 -50q-2 -30 -23 -52.5t-53 -22.5zM328 441q-47 -1 -67.5 29.5t-18.5 75.5q1 32 13 68t34.5 74t55.5 77l37 -28
q-11 -14 -26 -40t-27 -57.5t-12 -60.5q7 2 11.5 2.5t9.5 0.5q27 0 47 -16t19 -50q-2 -30 -23 -52.5t-53 -22.5z" />
    <glyph glyph-name="quotedblright" unicode="&#x201d;" horiz-adv-x="396" 
d="M121 760q47 1 67.5 -29.5t18.5 -75.5q-1 -32 -13 -68t-34.5 -74t-55.5 -77l-37 28q11 14 26 40t27 57.5t12 60.5q-7 -2 -11.5 -2.5t-9.5 -0.5q-27 0 -47 16t-19 50q2 30 23 52.5t53 22.5zM307 760q47 1 67.5 -29.5t18.5 -75.5q-1 -32 -13 -68t-34.5 -74t-55.5 -77l-37 28
q11 14 26 40t27 57.5t12 60.5q-7 -2 -11.5 -2.5t-9.5 -0.5q-27 0 -47 16t-19 50q2 30 23 52.5t53 22.5z" />
    <glyph glyph-name="quotedblbase" unicode="&#x201e;" horiz-adv-x="439" 
d="M103 137q47 1 67.5 -29.5t18.5 -75.5q-1 -32 -13 -68t-34.5 -74t-55.5 -77l-37 28q11 14 26 40t27 57.5t12 60.5q-7 -2 -11.5 -2.5t-9.5 -0.5q-27 0 -47 16t-19 50q2 30 23 52.5t53 22.5zM293 137q47 1 67.5 -29.5t18.5 -75.5q-1 -32 -13 -68t-34.5 -74t-55.5 -77l-37 28
q11 14 26 40t27 57.5t12 60.5q-7 -2 -11.5 -2.5t-9.5 -0.5q-27 0 -47 16t-19 50q2 30 23 52.5t53 22.5z" />
    <glyph glyph-name="dagger" unicode="&#x2020;" horiz-adv-x="507" 
d="M281 754q26 0 39.5 -14.5t17 -35.5t0.5 -41q-5 -40 -17 -88.5t-21 -88.5q32 7 65 14.5t64 7.5q18 0 34 -4t25.5 -15.5t7.5 -34.5q-1 -23 -12 -35t-27.5 -16.5t-34.5 -4.5q-40 4 -67.5 10t-52.5 11q6 -35 12 -76t14 -63q-15 -84 -28 -178.5t-23.5 -190t-20.5 -182.5h-61
q0 86 -1 181.5t-3.5 191t-8.5 178.5q10 23 20 63.5t20 75.5q-55 -15 -86 -18t-36 -3q-18 0 -34 4.5t-25.5 16.5t-8.5 35t11.5 34.5t27 15.5t33.5 4q32 0 64 -7.5t63 -13.5q-5 40 -11.5 88t-8.5 88q-1 20 5.5 41t22.5 35.5t42 14.5z" />
    <glyph glyph-name="daggerdbl" unicode="&#x2021;" horiz-adv-x="526" 
d="M231 -271q-26 0 -39.5 14.5t-17 36t-0.5 41.5q4 27 9.5 59t12.5 64t13 58q-31 -6 -64.5 -14t-59.5 -8q-18 0 -34 4.5t-25 16.5t-8 34q1 23 12 35t27.5 16.5t34.5 4.5q35 0 67.5 -8.5t57.5 -13.5q0 31 -3.5 60.5t-9.5 58t-16 55.5q18 44 28.5 87t13.5 86q-53 -15 -85 -18
t-37 -3q-18 0 -34 4t-25.5 16t-8.5 35t11.5 35t27 16t33.5 4q32 0 64 -7.5t63 -14.5q-4 41 -11.5 91.5t-9.5 90.5q0 20 6 41.5t21.5 36t41.5 14.5t39.5 -14.5t17.5 -36t1 -41.5q-7 -40 -19 -90.5t-22 -91.5q33 7 66 14.5t64 7.5q18 0 33.5 -4t25 -16t7.5 -35
q-1 -23 -11.5 -35t-27 -16t-34.5 -4q-41 4 -69 10.5t-52 10.5q0 -45 6 -88t16 -85q-11 -25 -19.5 -53t-15 -58t-10.5 -63q38 9 58.5 14t35 6.5t34.5 1.5q18 0 34 -4.5t25.5 -16.5t8.5 -35q-1 -22 -12 -34t-27 -16.5t-34 -4.5q-26 0 -55.5 7.5t-66.5 14.5q4 -26 7 -58
t5.5 -64t3.5 -59q1 -20 -5.5 -41.5t-22 -36t-41.5 -14.5z" />
    <glyph glyph-name="bullet" unicode="&#x2022;" horiz-adv-x="378" 
d="M201 518q44 0 78.5 -20.5t54 -55.5t17.5 -79t-25.5 -79t-60 -55.5t-80.5 -20.5t-79 20.5t-54 55.5t-17 79q3 44 25.5 79t59.5 55.5t81 20.5z" />
    <glyph glyph-name="ellipsis" unicode="&#x2026;" horiz-adv-x="773" 
d="M105 140q31 0 50.5 -23t17.5 -55q-1 -32 -22 -55t-53 -23q-33 0 -52 23t-18 55q2 32 25 55t52 23zM375 140q31 0 50.5 -23t17.5 -55q-1 -32 -22 -55t-53 -23q-33 0 -52 23t-18 55q2 32 25 55t52 23zM645 140q31 0 50.5 -23t17.5 -55q-1 -32 -22 -55t-53 -23q-33 0 -52 23
t-18 55q2 32 25 55t52 23z" />
    <glyph glyph-name="perthousand" unicode="&#x2030;" horiz-adv-x="1297" 
d="M170 -17l-61 61l605 672l69 -66zM226 325q-61 0 -101.5 27.5t-59.5 71.5t-17 93q3 47 26.5 92.5t67 75.5t102.5 31q62 2 102 -26.5t59.5 -73t16.5 -90.5q-2 -53 -29 -99t-70.5 -74t-96.5 -28zM230 393q21 0 35 14t22 35t11.5 43.5t3.5 39.5q0 22 -3 44t-10 40t-19 28.5
t-29 10.5q-23 0 -37.5 -14.5t-22.5 -36.5t-11 -43.5t-3 -35.5q0 -19 3 -40.5t10 -41t19.5 -31.5t30.5 -12zM655 -16q-61 0 -101.5 27.5t-59.5 71.5t-17 93q3 47 27 92.5t67 75.5t102 31q61 2 101.5 -26.5t60 -73t16.5 -90.5q-3 -52 -29 -98t-69 -74.5t-98 -28.5zM660 52
q28 0 43 23.5t21.5 55t6.5 54.5q0 22 -3 43.5t-10 39.5t-19 28.5t-29 10.5q-23 0 -37.5 -14.5t-22 -36.5t-10.5 -43.5t-3 -35.5q0 -19 3 -40.5t10 -41t19 -31.5t31 -12zM1065 -16q-61 0 -101.5 27.5t-59.5 71.5t-17 93q3 47 26.5 92.5t66.5 75.5t103 31q62 2 102 -26.5
t59.5 -73t16.5 -90.5q-3 -52 -29 -98t-69 -74.5t-98 -28.5zM1070 52q28 0 43 23.5t21.5 55t6.5 54.5q0 22 -3 43.5t-10 39.5t-19 28.5t-29 10.5q-23 0 -37.5 -14.5t-22 -36.5t-10.5 -43.5t-3 -35.5q0 -19 3 -40.5t10 -41t19 -31.5t31 -12z" />
    <glyph glyph-name="minute" unicode="&#x2032;" horiz-adv-x="289" 
d="M104 480l-59 27l88 297l111 -47z" />
    <glyph glyph-name="second" unicode="&#x2033;" horiz-adv-x="459" 
d="M104 480l-59 27l88 297l111 -47zM274 480l-59 27l88 297l111 -47z" />
    <glyph glyph-name="guilsinglleft" unicode="&#x2039;" horiz-adv-x="372" 
d="M272 -16l-256 274l1 22l287 273l46 -51l-197 -235v-1l170 -234z" />
    <glyph glyph-name="guilsinglright" unicode="&#x203a;" horiz-adv-x="371" 
d="M63 -16l-46 51l197 235v1l-170 234l51 48l256 -274l-1 -22z" />
    <glyph glyph-name="fraction" unicode="&#x2044;" horiz-adv-x="457" 
d="M438 716l64 -51l-480 -681l-61 47z" />
    <glyph glyph-name="uni2052" unicode="&#x2052;" horiz-adv-x="773" 
d="M640 716l73 -66l-578 -667l-65 61zM177 699q-32 0 -50.5 -17.5t-25.5 -41.5t-7 -42q0 -23 7 -50.5t25.5 -47t52.5 -19.5q32 0 49.5 16t25 39.5t7.5 45.5q0 24 -7.5 51t-25.5 46.5t-51 19.5zM610 218q-31 0 -49 -16t-25.5 -39t-7.5 -46t8 -50.5t27 -47t51 -19.5t49.5 18
t24.5 41.5t7 41.5q0 23 -7 50.5t-25.5 47t-52.5 19.5z" />
    <glyph glyph-name="uni2074" unicode="&#x2074;" horiz-adv-x="400" 
d="M146 301l2 38q19 1 30.5 8.5t13.5 41.5v13l-151 1l2 58l227 255h34l-13 -259l59 -1l-3 -55h-59l-5 -57l43 1l-3 -44h-177zM197 458l11 120h-1l-97 -118z" />
    <glyph glyph-name="Euro" unicode="&#x20ac;" horiz-adv-x="792" 
d="M490 716q39 0 82.5 -11.5t81.5 -37.5h1l4 42h77l-36 -219h-65q2 49 -13 83t-45.5 52.5t-77.5 18.5q-55 0 -98 -27t-72 -72t-44 -99l335 -1l-51 -75l-298 -1l-2 -30t1 -30l282 -1l-53 -75l-220 -1q17 -82 67.5 -124.5t126.5 -42.5q63 0 127.5 31.5t109.5 89.5l43 -42
q-52 -67 -107.5 -101.5t-107.5 -46.5t-94 -12q-83 0 -147 32t-104.5 88t-56.5 128l-107 -1l23 79l75 -1q0 31 3 59h-94l23 78h87q22 72 67 133.5t114 99t163 37.5z" />
    <glyph glyph-name="trademark" unicode="&#x2122;" horiz-adv-x="1086" 
d="M695 281q-31 80 -53 138t-36 102t-22 82h-2q0 -28 -1 -57t-2 -56l-4 -97q-1 -16 -3 -30.5t-4 -22.5q10 1 24 1t21 1l-3 -55h-143l3 48q20 1 30 8.5t13 42.5l16 209q1 16 2.5 31t2.5 22q-10 -1 -24 -1.5t-21 -0.5l3 54h151l86 -229q10 -27 16 -48.5t11 -43.5h2
q4 12 10.5 30t13 34t9.5 23q26 59 51.5 117.5t50.5 116.5h156l-3 -47q-19 -1 -32 -8.5t-13 -42.5l-3 -209q0 -17 -1.5 -31t-3.5 -22q9 1 23.5 1t21.5 1l-3 -55h-179l3 48q20 1 32 8.5t12 42.5l2 116q0 7 0.5 24.5t1 38.5t0.5 39h-1q-6 -15 -12.5 -30t-12.5 -30l-110 -263
h-76zM159 287l2 48q20 2 31.5 9t13.5 43l13 259h-32q-33 0 -54 -23t-24 -71h-39l12 148h383l-5 -148h-39q3 48 -15.5 71.5t-51.5 22.5h-34l-13 -252q-1 -16 -2 -31t-3 -23q9 1 25 1.5t23 0.5l-3 -55h-188z" />
    <glyph glyph-name="minus" unicode="&#x2212;" 
d="M50 399h446l-4 -78h-446z" />
    <glyph glyph-name="uni2215" unicode="&#x2215;" horiz-adv-x="387" 
d="M311 742l71 -40l-354 -754l-68 36z" />
    <glyph glyph-name="colon.case" horiz-adv-x="250" 
d="M108 250q31 0 50.5 -23t17.5 -55q-1 -32 -22 -55t-53 -23q-33 0 -52 23t-18 55q2 32 25 55t52 23zM108 653q31 0 50.5 -23t17.5 -55q-1 -32 -22 -55t-53 -23q-33 0 -52 23t-18 55q2 32 25 55t52 23z" />
    <glyph glyph-name="periodcentered.loclCAT" horiz-adv-x="227" 
d="M120 419q31 0 50.5 -23t17.5 -55q-1 -32 -22 -55t-53 -23q-33 0 -52 23t-18 55q2 32 25 55t52 23z" />
    <glyph glyph-name="uni0308.case" horiz-adv-x="../0.html" 
d="M105 797q-25 0 -42.5 20.5t-17.5 50.5q0 33 21 57t49 24q26 0 42.5 -21t16.5 -50q0 -32 -20 -56.5t-49 -24.5zM280 797q-26 0 -43 20.5t-17 50.5q0 33 20.5 57t48.5 24q27 0 43 -21t16 -50q0 -33 -19.5 -57t-48.5 -24z" />
    <glyph glyph-name="gravecomb.case" horiz-adv-x="../0.html" 
d="M224 770l-141 84q-15 10 -26 24.5t-12 31.5t12 33q13 17 30.5 19.5t35.5 -5t31 -21.5l109 -117z" />
    <glyph glyph-name="acutecomb.case" horiz-adv-x="../0.html" 
d="M79 770l-34 48l122 118q15 14 33 21.5t35.5 5t28.5 -19.5q12 -17 9 -34t-15 -31t-29 -24z" />
    <glyph glyph-name="uni0302.case.i" horiz-adv-x="../0.html" 
d="M378 768l-123 99l-139 -96l-36 47l175 153h15l151 -157z" />
    <glyph glyph-name="uni030A.case" horiz-adv-x="../0.html" 
d="M179 751q-32 0 -63 13.5t-51 41.5t-20 71q0 39 20 68t50.5 45t62.5 16t62.5 -13.5t51 -41.5t20.5 -72q0 -40 -20 -69t-50.5 -44t-62.5 -15zM182 802q17 0 30 16.5t13 48.5q0 42 -12 65.5t-35 23.5q-25 0 -35.5 -23.5t-10.5 -47.5q0 -39 14 -61t36 -22z" />
    <glyph glyph-name="tildecomb.case" horiz-adv-x="../0.html" 
d="M185 848q-19 0 -44 -9.5t-45 -39.5l-51 32q23 56 61.5 81t74.5 25q25 0 44 -7.5t35 -17.5t32.5 -17.5t35.5 -7.5q20 0 46 17t40 45l52 -27q-18 -51 -41 -78t-47 -36.5t-45 -9.5q-23 0 -41.5 7.5t-35 17.5t-33.5 17.5t-38 7.5z" />
    <glyph glyph-name="uni0327.case" horiz-adv-x="../0.html" 
d="M50 -275l-5 55q12 2 32.5 8t41.5 15.5t35.5 22.5t15.5 28q1 14 -6.5 19.5t-18.5 5.5t-23 -4.5t-20 -10.5l-41 15l38 131h80l-33 -77q14 6 35.5 11t34.5 4q31 -1 52.5 -19.5t19.5 -53.5t-28 -61.5t-64 -44.5t-77.5 -29t-68.5 -15z" />
    <glyph glyph-name="circumflex.case" horiz-adv-x="419" 
d="M421 779l-179 88l-193 -86l-19 40l212 150h19l188 -150z" />
    </font>
</defs>
</svg>
